Уважаемый Гость!
Вы можете поддержать проект и зарегистрироваться у наших партнеров - онлайн-стратегия MyLands. При регистрации в игре Вы получите код, который сможете активировать после регистрации на pirat.ca и получить 1000 дублонов.

Ваш код:
1b8effbb2d91248629d5897a85d0d1c4a4c433f0
 
     

(Power Metal) Helloween - My God-Given Right (Mailorder Ed.)(2CD) - 2015 [FLAC, image+.cue, lossless]

Ответить на тему
 
Автор
Сообщение

Пост 30-Май-2015 22:16

[Q] 

sergej644

-Helloween / My God-Given Right (Mailorder Ed.)(2CD)-- Год издания: 2015
Страна: Germany
Жанр: Power Metal
Продолжительность: 01:18:09-Лейбл издания: Nuclear Blast
Страна-выпуска диска: Germany
Номер по каталогу: NB 3344-5-1/2
Формат: FLAC
Битрейт аудио: lossless
Тип рипа: image+.cue
Наличие сканов в содержимом раздачи: да
--
01.Heroes (03:52)
02.Battle's Won (04:54)
03.My God-Given Right (03:31)
04.Stay Crazy (04:04)
05.Lost In America (03:36)
06.Russian Roule (03:53)
07.Swing Of A Fallen World (04:57)
08.Like Everybody Else (04:03)
09.Creatures In Heaven (06:38)
10.If God Loves Rock 'N' Roll (03:22)
11.Living On The Edge (05:19)
12.Claws (05:54)
13.You, Still Of War (07:23)
01.I Wish I Were There (04:13)
02.Wicked Game (03:57)
03.Nightmare (04:44)
04.More Than A Lifetime (03:56)
--
Код:
xact Audio Copy V1.0 beta 4 from 7. December 2014
EAC extraction logfile from 29. May 2015, 12:01
Helloween / My God-Given Right (Mailorder Ed.) CD 1
Used drive  : HP      DVD Writer 1170d   Adapter: 1  ID: 1
Read mode               : Secure
Utilize accurate stream : Yes
Defeat audio cache      : Yes
Make use of C2 pointers : No
Read offset correction                      : 6
Overread into Lead-In and Lead-Out          : No
Fill up missing offset samples with silence : Yes
Delete leading and trailing silent blocks   : No
Null samples used in CRC calculations       : Yes
Used interface                              : Native Win32 interface for Win NT & 2000
Used output format              : User Defined Encoder
Selected bitrate                : 768 kBit/s
Quality                         : High
Add ID3 tag                     : No
Command line compressor         : C:\Program Files (x86)\Exact Audio Copy\FLAC\FLAC.EXE
Additional command line options : -V -8 -T "Date=%year%" -T "Genre=%genre%" -T"COMMENT=Ripped by Schkuro666" -8 -V %source%
TOC of the extracted CD
     Track |   Start  |  Length  | Start sector | End sector
    ---------------------------------------------------------
        1  |  0:00.00 |  3:51.28 |         0    |    17352
        2  |  3:51.28 |  4:53.61 |     17353    |    39388
        3  |  8:45.14 |  3:30.32 |     39389    |    55170
        4  | 12:15.46 |  4:03.66 |     55171    |    73461
        5  | 16:19.37 |  3:35.51 |     73462    |    89637
        6  | 19:55.13 |  3:52.23 |     89638    |   107060
        7  | 23:47.36 |  4:56.72 |    107061    |   129332
        8  | 28:44.33 |  4:02.39 |    129333    |   147521
        9  | 32:46.72 |  6:37.24 |    147522    |   177320
       10  | 39:24.21 |  3:21.71 |    177321    |   192466
       11  | 42:46.17 |  5:18.65 |    192467    |   216381
       12  | 48:05.07 |  5:53.10 |    216382    |   242866
       13  | 53:58.17 |  7:22.01 |    242867    |   276017
Range status and errors
Selected range
     Filename C:\EAC\Schkuro666\Helloween - My God-Given Right (Mailorder Ed.) CD 1.wav
     Peak level 99.5 %
     Extraction speed 7.1 X
     Range quality 99.9 %
     Test CRC 8A94D5F1
     Copy CRC 8A94D5F1
     Copy OK
No errors occurred
AccurateRip summary
Track  1  not present in database
Track  2  not present in database
Track  3  not present in database
Track  4  not present in database
Track  5  not present in database
Track  6  not present in database
Track  7  not present in database
Track  8  not present in database
Track  9  not present in database
Track 10  not present in database
Track 11  not present in database
Track 12  not present in database
Track 13  not present in database
None of the tracks are present in the AccurateRip database
End of status report
---- CUETools DB Plugin V2.1.5
[CTDB TOCID: KVkYpiH8tZ4JANYwfaqgmCKh2Q8-] found
Submit result: KVkYpiH8tZ4JANYwfaqgmCKh2Q8- has been confirmed
Track | CTDB Status
  1   | (1/1) Accurately ripped
  2   | (1/1) Accurately ripped
  3   | (1/1) Accurately ripped
  4   | (1/1) Accurately ripped
  5   | (1/1) Accurately ripped
  6   | (1/1) Accurately ripped
  7   | (1/1) Accurately ripped
  8   | (1/1) Accurately ripped
  9   | (1/1) Accurately ripped
10   | (1/1) Accurately ripped
11   | (1/1) Accurately ripped
12   | (1/1) Accurately ripped
13   | (1/1) Accurately ripped
Код:
Exact Audio Copy V1.0 beta 4 from 7. December 2014
EAC extraction logfile from 29. May 2015, 12:10
Helloween / My God-Given Right (Mailorder Ed.) CD 2
Used drive  : HP      DVD Writer 1170d   Adapter: 1  ID: 1
Read mode               : Secure
Utilize accurate stream : Yes
Defeat audio cache      : Yes
Make use of C2 pointers : No
Read offset correction                      : 6
Overread into Lead-In and Lead-Out          : No
Fill up missing offset samples with silence : Yes
Delete leading and trailing silent blocks   : No
Null samples used in CRC calculations       : Yes
Used interface                              : Native Win32 interface for Win NT & 2000
Used output format              : User Defined Encoder
Selected bitrate                : 768 kBit/s
Quality                         : High
Add ID3 tag                     : No
Command line compressor         : C:\Program Files (x86)\Exact Audio Copy\FLAC\FLAC.EXE
Additional command line options : -V -8 -T "Date=%year%" -T "Genre=%genre%" -T"COMMENT=Ripped by Schkuro666" -8 -V %source%
TOC of the extracted CD
     Track |   Start  |  Length  | Start sector | End sector
    ---------------------------------------------------------
        1  |  0:00.00 |  4:12.74 |         0    |    18973
        2  |  4:12.74 |  3:56.63 |     18974    |    36736
        3  |  8:09.62 |  4:43.20 |     36737    |    57981
        4  | 12:53.07 |  3:55.34 |     57982    |    75640
Range status and errors
Selected range
     Filename C:\EAC\Schkuro666\Helloween - My God-Given Right (Mailorder Ed.) CD 2.wav
     Peak level 98.6 %
     Extraction speed 5.4 X
     Range quality 100.0 %
     Test CRC 7B7E0B66
     Copy CRC 7B7E0B66
     Copy OK
No errors occurred
AccurateRip summary
Track  1  not present in database
Track  2  not present in database
Track  3  not present in database
Track  4  not present in database
None of the tracks are present in the AccurateRip database
End of status report
---- CUETools DB Plugin V2.1.5
[CTDB TOCID: lJy7pRyaXXg5Dys8wVc3WE2vHl8-] found
Submit result: lJy7pRyaXXg5Dys8wVc3WE2vHl8- has been confirmed
Track | CTDB Status
  1   | (1/1) Accurately ripped
  2   | (1/1) Accurately ripped
  3   | (1/1) Accurately ripped
  4   | (1/1) Accurately ripped
Код:
REM DATE 2015
REM DISCID CD0E600D
REM COMMENT "ExactAudioCopy v1.0b4"
PERFORMER "Helloween"
TITLE "My God-Given Right (Mailorder Ed.) CD 1"
FILE "Helloween - My God-Given Right (Mailorder Ed.) CD 1.flac" WAVE
  TRACK 01 AUDIO
    TITLE "Heroes"
    PERFORMER "Helloween"
    INDEX 01 00:00:00
  TRACK 02 AUDIO
    TITLE "Battle's Won"
    PERFORMER "Helloween"
    INDEX 01 03:51:28
  TRACK 03 AUDIO
    TITLE "My God-Given Right"
    PERFORMER "Helloween"
    INDEX 01 08:45:14
  TRACK 04 AUDIO
    TITLE "Stay Crazy"
    PERFORMER "Helloween"
    INDEX 01 12:15:46
  TRACK 05 AUDIO
    TITLE "Lost In America"
    PERFORMER "Helloween"
    INDEX 01 16:19:37
  TRACK 06 AUDIO
    TITLE "Russian Roule"
    PERFORMER "Helloween"
    INDEX 01 19:55:13
  TRACK 07 AUDIO
    TITLE "Swing Of A Fallen World"
    PERFORMER "Helloween"
    INDEX 01 23:47:36
  TRACK 08 AUDIO
    TITLE "Like Everybody Else"
    PERFORMER "Helloween"
    INDEX 00 28:41:15
    INDEX 01 28:44:33
  TRACK 09 AUDIO
    TITLE "Creatures In Heaven"
    PERFORMER "Helloween"
    INDEX 01 32:46:72
  TRACK 10 AUDIO
    TITLE "If God Loves Rock 'N' Roll"
    PERFORMER "Helloween"
    INDEX 01 39:24:21
  TRACK 11 AUDIO
    TITLE "Living On The Edge"
    PERFORMER "Helloween"
    INDEX 01 42:46:17
  TRACK 12 AUDIO
    TITLE "Claws"
    PERFORMER "Helloween"
    INDEX 01 48:05:07
  TRACK 13 AUDIO
    TITLE "You, Still Of War"
    PERFORMER "Helloween"
    INDEX 01 53:58:17
Код:
REM DATE 2015
REM DISCID 2E03F004
REM COMMENT "ExactAudioCopy v1.0b4"
PERFORMER "Helloween"
TITLE "My God-Given Right (Mailorder Ed.) CD 2"
FILE "Helloween - My God-Given Right (Mailorder Ed.) CD 2.flac" WAVE
  TRACK 01 AUDIO
    TITLE "I Wish I Were There"
    PERFORMER "Helloween"
    INDEX 01 00:00:00
  TRACK 02 AUDIO
    TITLE "Wicked Game"
    PERFORMER "Helloween"
    INDEX 01 04:12:74
  TRACK 03 AUDIO
    TITLE "Nightmare"
    PERFORMER "Helloween"
    INDEX 01 08:09:62
  TRACK 04 AUDIO
    TITLE "More Than A Lifetime"
    PERFORMER "Helloween"
    INDEX 01 12:53:07
Код:
AUDIOCHECKER v2.0 beta (build 457) - by Dester - [email protected]
~~~~~~~~~~~~~~~~~~~~~~~~~~~~~~~~~~
Started at: суббота, 30. 05. 2015. - 20:34.17
1 file found
1 -===- D:\Torrent files\Helloween - My God-Given Right (Mailorder Ed.) (2015)\CD 1\Helloween - My God-Given Right (Mailorder Ed.) CD 1.flac
  Extracted successfully
  Conclusion: this track is CDDA with probability 100%
  Tempfile successfully deleted.
Finished at: суббота, 30. 05. 2015. - 20:37.30 (operation time: 0:03.12)
Код:
AUDIOCHECKER v2.0 beta (build 457) - by Dester - [email protected]
~~~~~~~~~~~~~~~~~~~~~~~~~~~~~~~~~~
Started at: суббота, 30. 05. 2015. - 20:37.47
1 file found
1 -===- D:\Torrent files\Helloween - My God-Given Right (Mailorder Ed.) (2015)\CD 2\Helloween - My God-Given Right (Mailorder Ed.) CD 2.flac
  Extracted successfully
  Conclusion: this track is CDDA with probability 100%
  Tempfile successfully deleted.
Finished at: суббота, 30. 05. 2015. - 20:38.39 (operation time: 0:00.52)
-- Не забываем говорить
Download / Скачать

Хотите скачать бесплатно? Зарегистрируйтесь на сайте (ссылка на регистрацию). Pirat.ca - самый быстрый торрент трекер в рунете!

Как скачивать  ·   Что такое торрент  ·   Рейтинг и ограничения

Maniac93

Корсар

Пост 30-Май-2015 22:18 (спустя 2 минуты)

[Q] 

Шикарный альбом, всем советую.
скачал из другого источника, но автору респект за раздачу!
[Профиль]  [ЛС] 

spidercola86

3394

Пост 30-Май-2015 22:42 (спустя 24 минуты)

[Q] 

На любителя Автору респект!!!
[Профиль]  [ЛС] 
Показать сообщения:    
Ответить на тему

Текущее время: Сегодня 02:43

Часовой пояс: GMT + 4



Вы не можете начинать темы
Вы не можете отвечать на сообщения
Вы не можете редактировать свои сообщения
Вы не можете удалять свои сообщения
Вы не можете голосовать в опросах
Вы не можете прикреплять файлы к сообщениям
Вы не можете скачивать файлы

▼ Вниз