Уважаемый Гость!
Вы можете поддержать проект и зарегистрироваться у наших партнеров - онлайн-стратегия MyLands. При регистрации в игре Вы получите код, который сможете активировать после регистрации на pirat.ca и получить 1000 дублонов.

Ваш код:
6ce94c87b14c77f4c9d9415fb160accb369c92d9
 
     

(Power metal) DSG - Still A Warrior - 2015 [FLAC, image+.cue, lossless]

Ответить на тему
 
Автор
Сообщение

Пост 11-Июн-2015 17:04

[Q] 

Дядя Вова

Гроза морей

-DSG / Still A Warrior-- Год издания: 2015
Страна: USA
Жанр: Power metal
Продолжительность: 48:29-Лейбл издания: PURESTEEL Records
Тип альбома: Master
Страна-выпуска диска: Germany
Номер по каталогу: PSRCD107
Формат: FLAC
Битрейт аудио: lossless
Тип рипа: image+.cue
Наличие сканов в содержимом раздачи: да-
01 - - Still A Warrior
02 - - Ressecution
03 - - Glimpse Of Tomorrow
04 - - Demonic Solo (From The Movie Jezebeth)
05 - - Fuel For The Fire
06 - - Eye To Eye
07 - - The Hitman
08 - - Suffer In Silence (Agenda 21)
09 - - Into The Darkness
10 - - Across The Line
Exact Audio Copy V1.0 beta 3 from 29. August 2011
EAC extraction logfile from 15. May 2015, 19:47
DSG / Still A Warrior
Used drive : ATAPI iHAS122 W Adapter: 2 ID: 0
Read mode : Secure
Utilize accurate stream : Yes
Defeat audio cache : Yes
Make use of C2 pointers : No
Read offset correction : 48
Overread into Lead-In and Lead-Out : No
Fill up missing offset samples with silence : Yes
Delete leading and trailing silent blocks : No
Null samples used in CRC calculations : Yes
Used interface : Installed external ASPI interface
Used output format : User Defined Encoder
Selected bitrate : 1024 kBit/s
Quality : High
Add ID3 tag : No
Command line compressor : C:\Program Files\FLAC\flac.exe
Additional command line options : -V -8 -T "Date=%year%" -T "Genre=%genre%" -T"COMMENT=Ripped by Ilijan" -8 -V %source%
TOC of the extracted CD
Track | Start | Length | Start sector | End sector
---------------------------------------------------------
1 | 0:00.00 | 5:24.08 | 0 | 24307
2 | 5:24.08 | 4:39.11 | 24308 | 45243
3 | 10:03.19 | 4:18.32 | 45244 | 64625
4 | 14:21.51 | 1:39.41 | 64626 | 72091
5 | 16:01.17 | 4:12.10 | 72092 | 91001
6 | 20:13.27 | 5:57.67 | 91002 | 117843
7 | 26:11.19 | 8:40.74 | 117844 | 156917
8 | 34:52.18 | 4:57.08 | 156918 | 179200
9 | 39:49.26 | 3:54.09 | 179201 | 196759
10 | 43:43.35 | 4:45.04 | 196760 | 218138
Range status and errors
Selected range
Filename D:\ИЛИЯН\DSG - Still A Warrior.wav
Peak level 100.0 %
Extraction speed 3.9 X
Range quality 100.0 %
Test CRC 87658392
Copy CRC 87658392
Copy OK
No errors occurred
AccurateRip summary
Track 1 not present in database
Track 2 not present in database
Track 3 not present in database
Track 4 not present in database
Track 5 not present in database
Track 6 not present in database
Track 7 not present in database
Track 8 not present in database
Track 9 not present in database
Track 10 not present in database
None of the tracks are present in the AccurateRip database
End of status report
---- CUETools DB Plugin V2.1.3
[CTDB TOCID: 1ULUtj9WWiE_2cKD0UchkYnIUAw-] disk not present in database, Submit result: 1ULUtj9WWiE_2cKD0UchkYnIUAw- has been uploaded
==== Log checksum 898A29D40565EC6E3E34918309590804047D607B4E4B9765F55F0F6F84DAB12D ====
REM GENRE Heavy/Power Metal
REM DATE 2015
REM DISCID 810B5C0A
REM COMMENT April 24th, 2015, USA
PERFORMER "DSG"
TITLE "Still A Warrior"
FILE "DSG - Still A Warrior.flac" WAVE
TRACK 01 AUDIO
TITLE "Still A Warrior"
FLAGS DCP
INDEX 01 00:00:00
TRACK 02 AUDIO
TITLE "Ressecution"
FLAGS DCP
INDEX 01 05:24:08
TRACK 03 AUDIO
TITLE "Glimpse Of Tomorrow"
FLAGS DCP
INDEX 01 10:03:19
TRACK 04 AUDIO
TITLE "Demonic Solo (From The Movie Jezebeth)"
FLAGS DCP
INDEX 01 14:21:51
TRACK 05 AUDIO
TITLE "Fuel For The Fire"
FLAGS DCP
INDEX 01 16:01:17
TRACK 06 AUDIO
TITLE "Eye To Eye"
FLAGS DCP
INDEX 01 20:13:27
TRACK 07 AUDIO
TITLE "The Hitman"
FLAGS DCP
INDEX 01 26:11:19
TRACK 08 AUDIO
TITLE "Suffer In Silence (Agenda 21)"
FLAGS DCP
INDEX 01 34:52:18
TRACK 09 AUDIO
TITLE "Into The Darkness"
FLAGS DCP
INDEX 01 39:49:26
TRACK 10 AUDIO
TITLE "Across The Line"
FLAGS DCP
INDEX 01 43:43:35
Download / Скачать

Хотите скачать бесплатно? Зарегистрируйтесь на сайте (ссылка на регистрацию). Pirat.ca - самый быстрый торрент трекер в рунете!

Как скачивать  ·   Что такое торрент  ·   Рейтинг и ограничения

Показать сообщения:    
Ответить на тему

Текущее время: Сегодня 01:12

Часовой пояс: GMT + 4



Вы не можете начинать темы
Вы не можете отвечать на сообщения
Вы не можете редактировать свои сообщения
Вы не можете удалять свои сообщения
Вы не можете голосовать в опросах
Вы не можете прикреплять файлы к сообщениям
Вы не можете скачивать файлы

▼ Вниз