Уважаемый Гость!
Вы можете поддержать проект и зарегистрироваться у наших партнеров - онлайн-стратегия MyLands. При регистрации в игре Вы получите код, который сможете активировать после регистрации на pirat.ca и получить 1000 дублонов.

Ваш код:
1b8effbb2d91248629d5897a85d0d1c4a4c433f0
 
     

(Heavy Metal) Paco Ventura - Black Moon - 2015 [FLAC, image+.cue, lossless]

Ответить на тему
 
Автор
Сообщение

Пост 30-Дек-2015 15:07

[Q] 

sergej644

-Paco Ventura / Black Moon-- Год издания: 2015
Страна: Spain
Жанр: Heavy Metal
Продолжительность: 01:13:04-Лейбл издания: AVISPA
Страна-выпуска диска: EU
Номер по каталогу: ACD234
Формат: FLAC
Битрейт аудио: lossless
Тип рипа: image+.cue
Наличие сканов в содержимом раздачи: да
-
01.Vencer Tu Miedo (04:32)
02.Black Moon (feat. John Norum) (04:35)
03.El Final (04:59)
04.Solo por Ti (04:58)
05.El Juego (feat. Patrick Rondat) (04:46)
06.Despiertame (04:29)
07.En Tu Piel (feat. Bruce Kulick) (03:59)
08.Fragil Cristal (feat. Roland Grapow) (05:33)
09.Por Ti Volare (feat. Carlos Marin) (05:19)
10.Buscando la Luz (04:51)
11.Get over It Forever (feat. Goran Edman) (04:07)
12.The End (feat. Joe Lynn Turner) (04:59)
13.Fragile Crystal (feat. Fabio Lione, Roland Grapow) (05:33)
14.Arabestia (feat. Kiko Loureiro) (05:24)
15.The End (Version Acustica) (05:07)
-
Код:
Exact Audio Copy V1.1 from 23. June 2015
EAC extraction logfile from 18. December 2015, 22:03
Paco Ventura / Black Moon
Used drive  : PIONEER BD-RW   BDR-209D   Adapter: 0  ID: 5
Read mode               : Secure
Utilize accurate stream : Yes
Defeat audio cache      : Yes
Make use of C2 pointers : No
Read offset correction                      : 667
Overread into Lead-In and Lead-Out          : No
Fill up missing offset samples with silence : Yes
Delete leading and trailing silent blocks   : No
Null samples used in CRC calculations       : Yes
Used interface                              : Installed external ASPI interface
Used output format              : User Defined Encoder
Selected bitrate                : 768 kBit/s
Quality                         : High
Add ID3 tag                     : No
Command line compressor         : C:\Program Files (x86)\Exact Audio Copy\FLAC\FLAC.EXE
Additional command line options : -6 -V -T "ARTIST=%artist%" -T "TITLE=%title%" -T "ALBUM=%albumtitle%" -T "DATE=%year%" -T "TRACKNUMBER=%tracknr%" -T "GENRE=%genre%" -T "COMMENT=%comment%" -T "BAND=%albuminterpret%" -T "ALBUMARTIST=%albuminterpret%" -T "COMPOSER=%composer%" %haslyrics%--tag-from-file=LYRICS="%lyricsfile%"%haslyrics% -T "DISCNUMBER=%cdnumber%" -T "TOTALDISCS=%totalcds%" -T "TOTALTRACKS=%numtracks%" %hascover%--picture="%coverfile%"%hascover% %source% -o %dest%
TOC of the extracted CD
     Track |   Start  |  Length  | Start sector | End sector
    ---------------------------------------------------------
        1  |  0:00.00 |  4:31.17 |         0    |    20341
        2  |  4:31.17 |  4:34.31 |     20342    |    40922
        3  |  9:05.48 |  4:58.53 |     40923    |    63325
        4  | 14:04.26 |  4:57.65 |     63326    |    85665
        5  | 19:02.16 |  4:45.12 |     85666    |   107052
        6  | 23:47.28 |  4:28.26 |    107053    |   127178
        7  | 28:15.54 |  3:58.18 |    127179    |   145046
        8  | 32:13.72 |  5:32.39 |    145047    |   169985
        9  | 37:46.36 |  5:18.70 |    169986    |   193905
       10  | 43:05.31 |  4:50.15 |    193906    |   215670
       11  | 47:55.46 |  4:06.60 |    215671    |   234180
       12  | 52:02.31 |  4:59.00 |    234181    |   256605
       13  | 57:01.31 |  5:32.11 |    256606    |   281516
       14  | 62:33.42 |  5:23.48 |    281517    |   305789
       15  | 67:57.15 |  5:06.51 |    305790    |   328790
Range status and errors
Selected range
     Filename E:\MUSIC\Paco Ventura - Black Moon.wav
     Peak level 96.6 %
     Extraction speed 8.5 X
     Range quality 100.0 %
     Test CRC 9EC05C00
     Copy CRC 9EC05C00
     Copy OK
No errors occurred
AccurateRip summary
Track  1  not present in database
Track  2  not present in database
Track  3  not present in database
Track  4  not present in database
Track  5  not present in database
Track  6  not present in database
Track  7  not present in database
Track  8  not present in database
Track  9  not present in database
Track 10  not present in database
Track 11  not present in database
Track 12  not present in database
Track 13  not present in database
Track 14  not present in database
Track 15  not present in database
None of the tracks are present in the AccurateRip database
End of status report
Код:
REM GENRE "Hard Rock"
REM DATE 2015
REM DISCID F1111F0F
REM COMMENT "ExactAudioCopy v1.1"
PERFORMER "Paco Ventura"
TITLE "Black Moon"
FILE "Paco Ventura - Black Moon.flac" WAVE
  TRACK 01 AUDIO
    TITLE "Vencer Tu Miedo"
    PERFORMER "Paco Ventura"
    INDEX 01 00:00:00
  TRACK 02 AUDIO
    TITLE "Black Moon (feat. John Norum)"
    PERFORMER "Paco Ventura"
    INDEX 00 04:30:05
    INDEX 01 04:31:17
  TRACK 03 AUDIO
    TITLE "El Final"
    PERFORMER "Paco Ventura"
    INDEX 00 09:04:04
    INDEX 01 09:05:48
  TRACK 04 AUDIO
    TITLE "Solo por Ti"
    PERFORMER "Paco Ventura"
    INDEX 00 14:03:10
    INDEX 01 14:04:26
  TRACK 05 AUDIO
    TITLE "El Juego (feat. Patrick Rondat)"
    PERFORMER "Paco Ventura"
    INDEX 00 19:01:02
    INDEX 01 19:02:16
  TRACK 06 AUDIO
    TITLE "Despiertame"
    PERFORMER "Paco Ventura"
    INDEX 00 23:46:47
    INDEX 01 23:47:28
  TRACK 07 AUDIO
    TITLE "En Tu Piel (feat. Bruce Kulick)"
    PERFORMER "Paco Ventura"
    INDEX 00 28:14:42
    INDEX 01 28:15:54
  TRACK 08 AUDIO
    TITLE "Fragil Cristal (feat. Roland Grapow)"
    PERFORMER "Paco Ventura"
    INDEX 00 32:12:38
    INDEX 01 32:13:72
  TRACK 09 AUDIO
    TITLE "Por Ti Volare (feat. Carlos Marin)"
    PERFORMER "Paco Ventura"
    INDEX 00 37:45:10
    INDEX 01 37:46:36
  TRACK 10 AUDIO
    TITLE "Buscando la Luz"
    PERFORMER "Paco Ventura"
    INDEX 00 43:04:15
    INDEX 01 43:05:31
  TRACK 11 AUDIO
    TITLE "Get over It Forever (feat. Goran Edman)"
    PERFORMER "Paco Ventura"
    INDEX 00 47:54:21
    INDEX 01 47:55:46
  TRACK 12 AUDIO
    TITLE "The End (feat. Joe Lynn Turner)"
    PERFORMER "Paco Ventura"
    INDEX 00 52:01:14
    INDEX 01 52:02:31
  TRACK 13 AUDIO
    TITLE "Fragile Crystal (feat. Fabio Lione, Roland Grapow)"
    PERFORMER "Paco Ventura"
    INDEX 00 57:00:23
    INDEX 01 57:01:31
  TRACK 14 AUDIO
    TITLE "Arabestia (feat. Kiko Loureiro)"
    PERFORMER "Paco Ventura"
    INDEX 00 62:32:02
    INDEX 01 62:33:42
  TRACK 15 AUDIO
    TITLE "The End (Version Acustica)"
    PERFORMER "Paco Ventura"
    INDEX 00 67:56:10
    INDEX 01 67:57:15
Код:
AUDIOCHECKER v2.0 beta (build 457) - by Dester - [email protected]
~~~~~~~~~~~~~~~~~~~~~~~~~~~~~~~~~~
-=== НЕ РЕДАКТИРУЙТЕ ЭТОТ ФАЙЛ! ===-
Путь: ...\Paco Ventura - Black Moon (2015)
1 -=- Paco Ventura - Black Moon.flac -=- CDDA (100%)
209785076
-- Не забываем говорить
Download / Скачать

Хотите скачать бесплатно? Зарегистрируйтесь на сайте (ссылка на регистрацию). Pirat.ca - самый быстрый торрент трекер в рунете!

Как скачивать  ·   Что такое торрент  ·   Рейтинг и ограничения

Показать сообщения:    
Ответить на тему

Текущее время: Сегодня 02:55

Часовой пояс: GMT + 4



Вы не можете начинать темы
Вы не можете отвечать на сообщения
Вы не можете редактировать свои сообщения
Вы не можете удалять свои сообщения
Вы не можете голосовать в опросах
Вы не можете прикреплять файлы к сообщениям
Вы не можете скачивать файлы

▼ Вниз