Уважаемый Гость!
Вы можете поддержать проект и зарегистрироваться у наших партнеров - онлайн-стратегия MyLands. При регистрации в игре Вы получите код, который сможете активировать после регистрации на pirat.ca и получить 1000 дублонов.

Ваш код:
bf76b4fde44c7189cfb4d32d5b204facc1d6d492
 
     

(Thrash Metal, Heavy Metal, Rock) MEGADETH - Dystopia - 2016 [FLAC, image+.cue, lossless]

Ответить на тему
 
Автор
Сообщение

Пост 04-Фев-2016 01:00

[Q] 

Дядя Вова

Гроза морей

-MEGADETH / Dystopia-- Год издания: 2016
Страна: USA
Жанр: Thrash Metal, Heavy Metal, Rock
Продолжительность: 54:53-Лейбл издания: Tradecraft
Тип альбома: Master
Страна-выпуска диска: USA
Номер по каталогу: B0024164-02
Источник (релизер): RMT-Формат: FLAC
Битрейт аудио: lossless
Тип рипа: image+.cue
Наличие сканов в содержимом раздачи: да-
01 The Threat Is Real
02 Dystopia
03 Fatal Illusion
04 Death from Within
05 Bullet to the Brain
06 Post American World
07 Poisonous Shadows
08 Look Who's Talking (Bonus Track)
09 Conquer or Die
10 Lying in State
11 The Emperor
12 Last Dying Wish (Bonus Track)
13 Foreign Policy (Fear cover)
Exact Audio Copy V1.0 beta 3 from 29. August 2011
EAC extraction logfile from 31. January 2016, 8:43
Megadeth / Dystopia (Best Buy Edition)
Used drive : HL-DT-STBD-RE BT11F Adapter: 0 ID: 2
Read mode : Secure
Utilize accurate stream : Yes
Defeat audio cache : Yes
Make use of C2 pointers : No
Read offset correction : 667
Overread into Lead-In and Lead-Out : No
Fill up missing offset samples with silence : Yes
Delete leading and trailing silent blocks : No
Null samples used in CRC calculations : Yes
Used interface : Native Win32 interface for Win NT & 2000
Used output format : User Defined Encoder
Selected bitrate : 128 kBit/s
Quality : High
Add ID3 tag : No
Command line compressor : C:\Program Files (x86)\FLAC\flac.exe
Additional command line options : -V -8 -T "Genre=%genre%" -T "Artist=%artist%" -T "Title=%title%" -T "Album=%albumtitle%" -T "Date=%year%" -T "Tracknumber=%tracknr%" -T "Comment=%comment%" %source%
TOC of the extracted CD
Track | Start | Length | Start sector | End sector
---------------------------------------------------------
1 | 0:00.00 | 4:22.02 | 0 | 19651
2 | 4:22.02 | 4:59.08 | 19652 | 42084
3 | 9:21.10 | 4:15.67 | 42085 | 61276
4 | 13:37.02 | 4:47.37 | 61277 | 82838
5 | 18:24.39 | 4:29.21 | 82839 | 103034
6 | 22:53.60 | 4:25.45 | 103035 | 122954
7 | 27:19.30 | 6:02.63 | 122955 | 150167
8 | 33:22.18 | 4:14.09 | 150168 | 169226
9 | 37:36.27 | 3:33.36 | 169227 | 185237
10 | 41:09.63 | 3:34.01 | 185238 | 201288
11 | 44:43.64 | 3:52.18 | 201289 | 218706
12 | 48:36.07 | 3:49.09 | 218707 | 235890
13 | 52:25.16 | 2:28.07 | 235891 | 246997
Range status and errors
Selected range
Filename D:\VovanKoperativ_Ripped_Music\Megadeth - Dystopia (Best Buy Edition) (FLAC) (2016)\Megadeth - Dystopia (Best Buy Edition).wav
Peak level 100.0 %
Extraction speed 4.2 X
Range quality 100.0 %
Test CRC 2BD446EA
Copy CRC 2BD446EA
Copy OK
No errors occurred
AccurateRip summary
Track 1 not present in database
Track 2 not present in database
Track 3 not present in database
Track 4 not present in database
Track 5 not present in database
Track 6 not present in database
Track 7 not present in database
Track 8 not present in database
Track 9 not present in database
Track 10 not present in database
Track 11 not present in database
Track 12 not present in database
Track 13 not present in database
None of the tracks are present in the AccurateRip database
End of status report
==== Log checksum 04EB2292CA30EAA05E001C7E93F32D127052387E551F41CD39A14698E7D9862E ====
REM GENRE "Thrash Metal"
REM DATE 2016
REM DISCID AF0CDD0D
REM COMMENT "ExactAudioCopy v1.0b3"
PERFORMER "Megadeth"
TITLE "Dystopia (Best Buy Edition)"
FILE "Megadeth - Dystopia (Best Buy Edition).flac" WAVE
TRACK 01 AUDIO
TITLE "The Threat Is Real"
PERFORMER "Megadeth"
INDEX 01 00:00:00
TRACK 02 AUDIO
TITLE "Dystopia"
PERFORMER "Megadeth"
INDEX 01 04:22:02
TRACK 03 AUDIO
TITLE "Fatal Illusion"
PERFORMER "Megadeth"
INDEX 01 09:21:10
TRACK 04 AUDIO
TITLE "Death From Within"
PERFORMER "Megadeth"
INDEX 01 13:37:02
TRACK 05 AUDIO
TITLE "Bullet To The Brain"
PERFORMER "Megadeth"
INDEX 01 18:24:39
TRACK 06 AUDIO
TITLE "Post American World"
PERFORMER "Megadeth"
INDEX 01 22:53:60
TRACK 07 AUDIO
TITLE "Poisonous Shadows"
PERFORMER "Megadeth"
INDEX 01 27:19:30
TRACK 08 AUDIO
TITLE "Look Who's Talking"
PERFORMER "Megadeth"
INDEX 01 33:22:18
TRACK 09 AUDIO
TITLE "Conquer Or Die"
PERFORMER "Megadeth"
INDEX 01 37:36:27
TRACK 10 AUDIO
TITLE "Lying In State"
PERFORMER "Megadeth"
INDEX 01 41:09:63
TRACK 11 AUDIO
TITLE "The Emperor"
PERFORMER "Megadeth"
INDEX 01 44:43:64
TRACK 12 AUDIO
TITLE "Last Dying Wish"
PERFORMER "Megadeth"
INDEX 01 48:36:07
TRACK 13 AUDIO
TITLE "Foreign Policy"
PERFORMER "Megadeth"
INDEX 01 52:25:16
Download / Скачать

Хотите скачать бесплатно? Зарегистрируйтесь на сайте (ссылка на регистрацию). Pirat.ca - самый быстрый торрент трекер в рунете!

Как скачивать  ·   Что такое торрент  ·   Рейтинг и ограничения

Пост 04-Фев-2016 20:31 (спустя 19 часов)

Топик был перенесен из форума Rock (Трюм) в форум Metal
sergej644
 
Показать сообщения:    
Ответить на тему

Текущее время: Сегодня 12:33

Часовой пояс: GMT + 4



Вы не можете начинать темы
Вы не можете отвечать на сообщения
Вы не можете редактировать свои сообщения
Вы не можете удалять свои сообщения
Вы не можете голосовать в опросах
Вы не можете прикреплять файлы к сообщениям
Вы не можете скачивать файлы

▼ Вниз