Уважаемый Гость!
Вы можете поддержать проект и зарегистрироваться у наших партнеров - онлайн-стратегия MyLands. При регистрации в игре Вы получите код, который сможете активировать после регистрации на pirat.ca и получить 1000 дублонов.

Ваш код:
6ce94c87b14c77f4c9d9415fb160accb369c92d9
 
     

(Heavy Metal, Hard Rock) Shakra - High Noon - 2016 [FLAC, image+.cue, lossless]

Ответить на тему
 
Автор
Сообщение

Пост 07-Фев-2016 20:23

[Q] 

Дядя Вова

Гроза морей

-Shakra / High Noon-- Год издания: January 29th, 2016
Страна: Bern, Switzerland
Жанр: Heavy Metal, Hard Rock
Продолжительность: 00:50:17-Лейбл издания: Fono Ltd.
Тип альбома: Master
Страна-выпуска диска: Russia
Номер по каталогу: FO1189CD
Источник (релизер): RMT-Формат: FLAC
Битрейт аудио: lossless
Тип рипа: image+.cue
Наличие сканов в содержимом раздачи: да-
01. Hello (04:16)
02. High Noon (05:06)
03. Into Your Heart (03:56)
04. Around the World (04:25)
05. Eye to Eye (03:53)
06. Is It Real (04:03)
07. Life's What You Need (04:15)
08. The Storm (04:16)
09. Raise Your Hands (03:46)
10. Stand Tall (04:10)
11. Watch Me Burn (04:04)
12. Wild and Hungry (04:08)
Exact Audio Copy V1.0 beta 3 from 29. August 2011
EAC extraction logfile from 6. February 2016, 0:47
Shakra / High Noon
Used drive : MATSHITABD-CMB UJ242AS Adapter: 0 ID: 1
Read mode : Secure
Utilize accurate stream : Yes
Defeat audio cache : Yes
Make use of C2 pointers : No
Read offset correction : 103
Overread into Lead-In and Lead-Out : No
Fill up missing offset samples with silence : Yes
Delete leading and trailing silent blocks : No
Null samples used in CRC calculations : Yes
Used interface : Installed external ASPI interface
Used output format : User Defined Encoder
Selected bitrate : 1024 kBit/s
Quality : High
Add ID3 tag : Yes
Command line compressor : C:\Program Files (x86)\Exact Audio Copy\Flac\flac.exe
Additional command line options : -V -8 -T "Date=%year%" -T "Genre=%genre%" %source%
TOC of the extracted CD
Track | Start | Length | Start sector | End sector
---------------------------------------------------------
1 | 0:00.00 | 4:16.25 | 0 | 19224
2 | 4:16.25 | 5:06.07 | 19225 | 42181
3 | 9:22.32 | 3:55.47 | 42182 | 59853
4 | 13:18.04 | 4:24.66 | 59854 | 79719
5 | 17:42.70 | 3:52.62 | 79720 | 97181
6 | 21:35.57 | 4:02.46 | 97182 | 115377
7 | 25:38.28 | 4:14.55 | 115378 | 134482
8 | 29:53.08 | 4:15.44 | 134483 | 153651
9 | 34:08.52 | 3:46.22 | 153652 | 170623
10 | 37:54.74 | 4:10.36 | 170624 | 189409
11 | 42:05.35 | 4:03.50 | 189410 | 207684
12 | 46:09.10 | 4:08.34 | 207685 | 226318
Range status and errors
Selected range
Filename C:\EACrip\Shakra - High Noon.wav
Peak level 96.6 %
Extraction speed 4.2 X
Range quality 100.0 %
Test CRC 73E491C7
Copy CRC 73E491C7
Copy OK
No errors occurred
AccurateRip summary
Track 1 not present in database
Track 2 not present in database
Track 3 not present in database
Track 4 not present in database
Track 5 not present in database
Track 6 not present in database
Track 7 not present in database
Track 8 not present in database
Track 9 not present in database
Track 10 not present in database
Track 11 not present in database
Track 12 not present in database
None of the tracks are present in the AccurateRip database
End of status report
==== Log checksum 73489A6C1A44A468B94475EEF4395B16177C8E3C55CDFDABD1505872FDC9868D ====
REM GENRE "Hard Rock"
REM DATE 2016
REM DISCID 9F0BC90C
REM COMMENT "ExactAudioCopy v1.0b3"
PERFORMER "Shakra"
TITLE "High Noon"
FILE "Shakra - High Noon.flac" WAVE
TRACK 01 AUDIO
TITLE "Hello"
PERFORMER "Shakra"
INDEX 01 00:00:00
TRACK 02 AUDIO
TITLE "High Noon"
PERFORMER "Shakra"
INDEX 01 04:16:25
TRACK 03 AUDIO
TITLE "Into Your Heart"
PERFORMER "Shakra"
INDEX 01 09:22:32
TRACK 04 AUDIO
TITLE "Around The World"
PERFORMER "Shakra"
INDEX 01 13:18:04
TRACK 05 AUDIO
TITLE "Eye To Eye"
PERFORMER "Shakra"
INDEX 01 17:42:70
TRACK 06 AUDIO
TITLE "Is It Real"
PERFORMER "Shakra"
INDEX 01 21:35:57
TRACK 07 AUDIO
TITLE "Liefe's What You Need"
PERFORMER "Shakra"
INDEX 01 25:38:28
TRACK 08 AUDIO
TITLE "The Storm"
PERFORMER "Shakra"
INDEX 01 29:53:08
TRACK 09 AUDIO
TITLE "Raise Your Hands"
PERFORMER "Shakra"
INDEX 01 34:08:52
TRACK 10 AUDIO
TITLE "Stand Tall"
PERFORMER "Shakra"
INDEX 01 37:54:74
TRACK 11 AUDIO
TITLE "Wathch Me Burn"
PERFORMER "Shakra"
INDEX 01 42:05:35
TRACK 12 AUDIO
TITLE "Wild And Hungry"
PERFORMER "Shakra"
INDEX 01 46:09:10
Download / Скачать

Хотите скачать бесплатно? Зарегистрируйтесь на сайте (ссылка на регистрацию). Pirat.ca - самый быстрый торрент трекер в рунете!

Как скачивать  ·   Что такое торрент  ·   Рейтинг и ограничения

Показать сообщения:    
Ответить на тему

Текущее время: Сегодня 01:10

Часовой пояс: GMT + 4



Вы не можете начинать темы
Вы не можете отвечать на сообщения
Вы не можете редактировать свои сообщения
Вы не можете удалять свои сообщения
Вы не можете голосовать в опросах
Вы не можете прикреплять файлы к сообщениям
Вы не можете скачивать файлы

▼ Вниз