Уважаемый Гость!
Вы можете поддержать проект и зарегистрироваться у наших партнеров - онлайн-стратегия MyLands. При регистрации в игре Вы получите код, который сможете активировать после регистрации на pirat.ca и получить 1000 дублонов.

Ваш код:
bf76b4fde44c7189cfb4d32d5b204facc1d6d492
 
     

(Heavy/Power/Speed Metal) Anvil - Anvil Is Anvil (Limited Edition) - 2016 [FLAC, tracks+.cue, lossless]

Ответить на тему
 
Автор
Сообщение

Пост 26-Фев-2016 01:56

[Q] 

Дядя Вова

Гроза морей

-Anvil / Anvil Is Anvil (Limited Edition)-- Год издания: 2016
Страна: Toronto, Ontario, Canada
Жанр: Heavy/Power/Speed Metal
Продолжительность: 00:49:44-Лейбл издания: CannaPower
Тип альбома: Master
Страна-выпуска диска: Canada
Источник (релизер): RMT-Формат: FLAC
Битрейт аудио: lossless
Тип рипа: tracks+.cue
Наличие сканов в содержимом раздачи: нет-
01. Daggers And Rum
02. Up, Down, Sideways
03. Gun Control
04. Die For A Lie
05. Runaway Train
06. Zombie Apocalypse
07. Its Your Move
08. Ambushed
09. Fire On The Highway
10. Run Like Hell
11. Forgive Don't Forget
12. Never Going To Stop (Digipak Bonus)
13. You Don't Know What It's Like (Digipak Bonus)
Exact Audio Copy V1.1 from 23. June 2015
EAC extraction logfile from 22. February 2016, 21:30
Anvil / Anvil is Anvil
Used drive : TSSTcorpBDDVDW SN-506BB Adapter: 1 ID: 0
Read mode : Secure
Utilize accurate stream : Yes
Defeat audio cache : Yes
Make use of C2 pointers : No
Read offset correction : 6
Overread into Lead-In and Lead-Out : No
Fill up missing offset samples with silence : Yes
Delete leading and trailing silent blocks : No
Null samples used in CRC calculations : Yes
Used interface : Native Win32 interface for Win NT & 2000
Gap handling : Appended to previous track
Used output format : User Defined Encoder
Selected bitrate : 1024 kBit/s
Quality : High
Add ID3 tag : No
Command line compressor : C:\Program Files (x86)\Exact Audio Copy\FLAC\FLAC.EXE
Additional command line options : -8 -V -T "ARTIST=%artist%" -T "TITLE=%title%" -T "ALBUM=%albumtitle%" -T "DATE=%year%" -T "TRACKNUMBER=%tracknr%" -T "GENRE=%genre%" -T "PERFORMER=%albuminterpret%" -T "COMPOSER=%composer%" %haslyrics%--tag-from-file=LYRICS="%lyricsfile%"%haslyrics% -T "ALBUMARTIST=%albumartist%" -T "DISCNUMBER=%cdnumber%" -T "TOTALDISCS=%totalcds%" -T "TOTALTRACKS=%numtracks%" -T "COMMENT=%comment%" %source% -o %dest%
TOC of the extracted CD
Track | Start | Length | Start sector | End sector
---------------------------------------------------------
1 | 0:00.00 | 5:14.50 | 0 | 23599
2 | 5:14.50 | 3:16.02 | 23600 | 38301
3 | 8:30.52 | 4:20.03 | 38302 | 57804
4 | 12:50.55 | 3:14.65 | 57805 | 72419
5 | 16:05.45 | 3:38.54 | 72420 | 88823
6 | 19:44.24 | 4:20.04 | 88824 | 108327
7 | 24:04.28 | 3:27.25 | 108328 | 123877
8 | 27:31.53 | 3:19.70 | 123878 | 138872
9 | 30:51.48 | 4:29.32 | 138873 | 159079
10 | 35:21.05 | 3:05.46 | 159080 | 173000
11 | 38:26.51 | 2:37.62 | 173001 | 184837
12 | 41:04.38 | 4:09.14 | 184838 | 203526
13 | 45:13.52 | 3:31.20 | 203527 | 219371
Track 1
Filename C:\EACRips\01. Daggers And Rum.wav
Pre-gap length 0:00:02.00
Peak level 97.6 %
Extraction speed 1.0 X
Track quality 99.9 %
Test CRC 31C59188
Copy CRC 31C59188
Track not present in AccurateRip database
Copy OK
Track 2
Filename C:\EACRips\02. Up, Down, Sideways.wav
Peak level 97.4 %
Extraction speed 0.8 X
Track quality 99.8 %
Test CRC A3535AB6
Copy CRC A3535AB6
Track not present in AccurateRip database
Copy OK
Track 3
Filename C:\EACRips\03. Gun Control.wav
Peak level 97.6 %
Extraction speed 0.9 X
Track quality 99.8 %
Test CRC CCE3644C
Copy CRC CCE3644C
Track not present in AccurateRip database
Copy OK
Track 4
Filename C:\EACRips\04. Die For A Lie.wav
Peak level 97.5 %
Extraction speed 1.2 X
Track quality 99.9 %
Test CRC 8405FFB6
Copy CRC 8405FFB6
Track not present in AccurateRip database
Copy OK
Track 5
Filename C:\EACRips\05. Runaway Train.wav
Peak level 97.4 %
Extraction speed 1.2 X
Track quality 99.8 %
Test CRC 72B9093E
Copy CRC 72B9093E
Track not present in AccurateRip database
Copy OK
Track 6
Filename C:\EACRips\06. Zombie Apocalypse.wav
Peak level 98.2 %
Extraction speed 1.3 X
Track quality 99.8 %
Test CRC F09AE93B
Copy CRC F09AE93B
Track not present in AccurateRip database
Copy OK
Track 7
Filename C:\EACRips\07. Its Your Move.wav
Peak level 97.5 %
Extraction speed 0.9 X
Track quality 99.7 %
Test CRC F2B206D4
Copy CRC F2B206D4
Track not present in AccurateRip database
Copy OK
Track 8
Filename C:\EACRips\08. Ambushed.wav
Peak level 97.5 %
Extraction speed 1.1 X
Track quality 99.7 %
Test CRC 16B9F560
Copy CRC 16B9F560
Track not present in AccurateRip database
Copy OK
Track 9
Filename C:\EACRips\09. Fire On The Highway.wav
Peak level 97.5 %
Extraction speed 2.9 X
Track quality 100.0 %
Test CRC 76FF4A7A
Copy CRC 76FF4A7A
Track not present in AccurateRip database
Copy OK
Track 10
Filename C:\EACRips\10. Run Like Hell.wav
Peak level 97.3 %
Extraction speed 1.0 X
Track quality 99.6 %
Test CRC 120BD790
Copy CRC 120BD790
Track not present in AccurateRip database
Copy OK
Track 11
Filename C:\EACRips\11. Forgive Don`t Forget.wav
Peak level 97.5 %
Extraction speed 1.2 X
Track quality 99.8 %
Test CRC EF807B71
Copy CRC EF807B71
Track not present in AccurateRip database
Copy OK
Track 12
Filename C:\EACRips\12. Never Going To Stop.wav
Peak level 97.4 %
Extraction speed 1.2 X
Track quality 99.7 %
Test CRC 70BEA3C4
Copy CRC 70BEA3C4
Track not present in AccurateRip database
Copy OK
Track 13
Filename C:\EACRips\13. You Don't Know What It's Like.wav
Peak level 97.7 %
Extraction speed 1.8 X
Track quality 99.9 %
Test CRC 8FF8D8F2
Copy CRC 8FF8D8F2
Track not present in AccurateRip database
Copy OK
None of the tracks are present in the AccurateRip database
No errors occurred
End of status report
---- CUETools DB Plugin V2.1.6
[CTDB TOCID: Yee0WG9jwWmcilUA4_ZJsX28jFA-] disk not present in database
Submit result: Yee0WG9jwWmcilUA4_ZJsX28jFA- has been uploaded
==== Log checksum 52779856E0F72A1CC398088ABC66AA1111D8CC548B522444C1B21504D33F46EF ====
REM GENRE Rock
REM DATE 2016
REM DISCID AF0B6C0D
REM COMMENT "ExactAudioCopy v1.1"
PERFORMER "Anvil"
TITLE "Anvil is Anvil"
FILE "01. Daggers And Rum.flac" WAVE
TRACK 01 AUDIO
TITLE "Daggers And Rum"
PERFORMER "Anvil"
ISRC DEA451510130
INDEX 01 00:00:00
FILE "02. Up, Down, Sideways.flac" WAVE
TRACK 02 AUDIO
TITLE "Up, Down, Sideways"
PERFORMER "Anvil"
ISRC DEA451510140
INDEX 01 00:00:00
FILE "03. Gun Control.flac" WAVE
TRACK 03 AUDIO
TITLE "Gun Control"
PERFORMER "Anvil"
ISRC DEA451510150
INDEX 01 00:00:00
FILE "04. Die For A Lie.flac" WAVE
TRACK 04 AUDIO
TITLE "Die For A Lie"
PERFORMER "Anvil"
ISRC DEA451510160
INDEX 01 00:00:00
FILE "05. Runaway Train.flac" WAVE
TRACK 05 AUDIO
TITLE "Runaway Train"
PERFORMER "Anvil"
ISRC DEA451510170
INDEX 01 00:00:00
FILE "06. Zombie Apocalypse.flac" WAVE
TRACK 06 AUDIO
TITLE "Zombie Apocalypse"
PERFORMER "Anvil"
ISRC DEA451510180
INDEX 01 00:00:00
FILE "07. Its Your Move.flac" WAVE
TRACK 07 AUDIO
TITLE "Its Your Move"
PERFORMER "Anvil"
ISRC DEA451510190
INDEX 01 00:00:00
FILE "08. Ambushed.flac" WAVE
TRACK 08 AUDIO
TITLE "Ambushed"
PERFORMER "Anvil"
ISRC DEA451510200
INDEX 01 00:00:00
FILE "09. Fire On The Highway.flac" WAVE
TRACK 09 AUDIO
TITLE "Fire On The Highway"
PERFORMER "Anvil"
ISRC DEA451510210
INDEX 01 00:00:00
FILE "10. Run Like Hell.flac" WAVE
TRACK 10 AUDIO
TITLE "Run Like Hell"
PERFORMER "Anvil"
ISRC DEA451510210
INDEX 01 00:00:00
FILE "11. Forgive Don't Forget.flac" WAVE
TRACK 11 AUDIO
TITLE "Forgive Don't Forget"
PERFORMER "Anvil"
ISRC DEA451510220
INDEX 01 00:00:00
FILE "12. Never Going To Stop.flac" WAVE
TRACK 12 AUDIO
TITLE "Never Going To Stop"
PERFORMER "Anvil"
ISRC DEA451510230
INDEX 01 00:00:00
FILE "13. You Don't Know What It's Like.flac" WAVE
TRACK 13 AUDIO
TITLE "You Don't Know What It's Like"
PERFORMER "Anvil"
ISRC DEA451510250
INDEX 01 00:00:00


Download / Скачать

Хотите скачать бесплатно? Зарегистрируйтесь на сайте (ссылка на регистрацию). Pirat.ca - самый быстрый торрент трекер в рунете!

Как скачивать  ·   Что такое торрент  ·   Рейтинг и ограничения

Показать сообщения:    
Ответить на тему

Текущее время: Сегодня 12:26

Часовой пояс: GMT + 4



Вы не можете начинать темы
Вы не можете отвечать на сообщения
Вы не можете редактировать свои сообщения
Вы не можете удалять свои сообщения
Вы не можете голосовать в опросах
Вы не можете прикреплять файлы к сообщениям
Вы не можете скачивать файлы

▼ Вниз