Уважаемый Гость!
Вы можете поддержать проект и зарегистрироваться у наших партнеров - онлайн-стратегия MyLands. При регистрации в игре Вы получите код, который сможете активировать после регистрации на pirat.ca и получить 1000 дублонов.

Ваш код:
d49a3625bbdee1b82b14274f97c375f8b2b2ee4c
 
     

(Melodic Death Metal) Amon Amarth - Jomsviking - 2016 [FLAC, image+.cue, lossless]

Ответить на тему
 
Автор
Сообщение

Пост 26-Мар-2016 20:45

[Q] 

Дядя Вова

Гроза морей

-Amon Amarth / Jomsviking-- Год издания: 2016
Страна: Sweden
Жанр: Melodic Death Metal
Продолжительность: 52:17-Лейбл издания: Metal Blade Records
Тип альбома: Master
Страна-выпуска диска: Europe
Номер по каталогу: [88875060652]
Источник (релизер): RMT-Формат: FLAC
Битрейт аудио: lossless
Тип рипа: image+.cue
Наличие сканов в содержимом раздачи: да-
01. First Kill
02. Wanderer
03. On A Sea Of Blood
04. One Against All
05. Raise Your Horns
06. The Way Of Vikings
07. At Dawn's First Light
08. One Thousand Burning Arrows
09. Vengeance Is My Name
10. A Dream That Cannot Be
11. Back On Northern Shores
Exact Audio Copy V1.1 from 23. June 2015
EAC extraction logfile from 25. March 2016, 17:18
Amon Amarth / Jomsviking
Used drive : ATAPI DVD A DH16ABSH Adapter: 1 ID: 0
Read mode : Secure
Utilize accurate stream : Yes
Defeat audio cache : Yes
Make use of C2 pointers : No
Read offset correction : 6
Overread into Lead-In and Lead-Out : No
Fill up missing offset samples with silence : Yes
Delete leading and trailing silent blocks : No
Null samples used in CRC calculations : Yes
Used interface : Native Win32 interface for Win NT & 2000
Used output format : User Defined Encoder
Selected bitrate : 768 kBit/s
Quality : High
Add ID3 tag : No
Command line compressor : C:\Program Files (x86)\Exact Audio Copy\FLAC\FLAC.EXE
Additional command line options : -6 -V -T "ARTIST=%artist%" -T "TITLE=%title%" -T "ALBUM=%albumtitle%" -T "DATE=%year%" -T "TRACKNUMBER=%tracknr%" -T "GENRE=%genre%" -T "COMMENT=%comment%" -T "BAND=%albuminterpret%" -T "ALBUMARTIST=%albuminterpret%" -T "COMPOSER=%composer%" %haslyrics%--tag-from-file=LYRICS="%lyricsfile%"%haslyrics% -T "DISCNUMBER=%cdnumber%" -T "TOTALDISCS=%totalcds%" -T "TOTALTRACKS=%numtracks%" %hascover%--picture="%coverfile%"%hascover% %source% -o %dest%
TOC of the extracted CD
Track | Start | Length | Start sector | End sector
---------------------------------------------------------
1 | 0:00.00 | 4:22.18 | 0 | 19667
2 | 4:22.18 | 4:42.73 | 19668 | 40890
3 | 9:05.16 | 4:04.39 | 40891 | 59229
4 | 13:09.55 | 3:37.74 | 59230 | 75578
5 | 16:47.54 | 4:23.59 | 75579 | 95362
6 | 21:11.38 | 5:11.22 | 95363 | 118709
7 | 26:22.60 | 3:50.59 | 118710 | 136018
8 | 30:13.44 | 5:49.63 | 136019 | 162256
9 | 36:03.32 | 4:41.61 | 162257 | 183392
10 | 40:45.18 | 4:22.74 | 183393 | 203116
11 | 45:08.17 | 7:08.39 | 203117 | 235255
Range status and errors
Selected range
Filename E:\privateer1664\Amon Amarth - Jomsviking.wav
Peak level 99.8 %
Extraction speed 8.2 X
Range quality 99.9 %
Test CRC 5B8C9836
Copy CRC 5B8C9836
Copy OK
No errors occurred
AccurateRip summary
Track 1 not present in database
Track 2 not present in database
Track 3 not present in database
Track 4 not present in database
Track 5 not present in database
Track 6 not present in database
Track 7 not present in database
Track 8 not present in database
Track 9 not present in database
Track 10 not present in database
Track 11 not present in database
None of the tracks are present in the AccurateRip database
End of status report
---- CUETools DB Plugin V2.1.6
[CTDB TOCID: quZBqYh7Wp75uqtYpDVZGBsU_lo-] found
Submit result: quZBqYh7Wp75uqtYpDVZGBsU_lo- has been confirmed
Track | CTDB Status
1 | (25/25) Accurately ripped
2 | (25/25) Accurately ripped
3 | (25/25) Accurately ripped
4 | (25/25) Accurately ripped
5 | (25/25) Accurately ripped
6 | (25/25) Accurately ripped
7 | (25/25) Accurately ripped
8 | (25/25) Accurately ripped
9 | (25/25) Accurately ripped
10 | (25/25) Accurately ripped
11 | (25/25) Accurately ripped
==== Log checksum 0A866B0169A560A49039473D0660826FCB65FE3F889F7A3E98EE749E41984593 ====
REM GENRE "Melodic Death Metal"
REM DATE 2016
REM DISCID 900C400B
REM COMMENT "2016 Europe , First Press"
PERFORMER "Amon Amarth"
TITLE "Jomsviking"
FILE "Amon Amarth - Jomsviking.flac" WAVE
TRACK 01 AUDIO
TITLE "First Kill"
PERFORMER "Amon Amarth"
INDEX 01 00:00:00
TRACK 02 AUDIO
TITLE "Wanderer"
PERFORMER "Amon Amarth"
INDEX 01 04:22:18
TRACK 03 AUDIO
TITLE "On A Sea Of Blood"
PERFORMER "Amon Amarth"
INDEX 01 09:05:16
TRACK 04 AUDIO
TITLE "One Against All"
PERFORMER "Amon Amarth"
INDEX 01 13:09:55
TRACK 05 AUDIO
TITLE "Raise Your Horns"
PERFORMER "Amon Amarth"
INDEX 01 16:47:54
TRACK 06 AUDIO
TITLE "The Way Of Vikings"
PERFORMER "Amon Amarth"
INDEX 01 21:11:38
TRACK 07 AUDIO
TITLE "At Dawn's First Light"
PERFORMER "Amon Amarth"
INDEX 01 26:22:60
TRACK 08 AUDIO
TITLE "One Thousand Burning Arrows"
PERFORMER "Amon Amarth"
INDEX 01 30:13:44
TRACK 09 AUDIO
TITLE "Vengeance Is My Name"
PERFORMER "Amon Amarth"
INDEX 01 36:03:32
TRACK 10 AUDIO
TITLE "A Dream That Cannot Be"
PERFORMER "Amon Amarth feat. Doro Pesch"
INDEX 01 40:45:18
TRACK 11 AUDIO
TITLE "Back On Northern Shores"
PERFORMER "Amon Amarth"
INDEX 01 45:08:17
Download / Скачать

Хотите скачать бесплатно? Зарегистрируйтесь на сайте (ссылка на регистрацию). Pirat.ca - самый быстрый торрент трекер в рунете!

Как скачивать  ·   Что такое торрент  ·   Рейтинг и ограничения

julikam

Гроза морей

Пост 26-Мар-2016 22:43 (спустя 1 час 58 минут)

[Q] 

ar
Спасибо!

_________________

Не может быть отремонтировано только то, что не сломано.
[Профиль]  [ЛС] 
Показать сообщения:    
Ответить на тему

Текущее время: Сегодня 19:43

Часовой пояс: GMT + 4



Вы не можете начинать темы
Вы не можете отвечать на сообщения
Вы не можете редактировать свои сообщения
Вы не можете удалять свои сообщения
Вы не можете голосовать в опросах
Вы не можете прикреплять файлы к сообщениям
Вы не можете скачивать файлы

▼ Вниз