Уважаемый Гость!
Вы можете поддержать проект и зарегистрироваться у наших партнеров - онлайн-стратегия MyLands. При регистрации в игре Вы получите код, который сможете активировать после регистрации на pirat.ca и получить 1000 дублонов.

Ваш код:
1b8effbb2d91248629d5897a85d0d1c4a4c433f0
 
     

(Symphonic/Opera/Gothic/Power Metal) VA - Symphonic & Opera Metal - Vol. 1 - 2CDs - 2015 [FLAC, image+.cue, lossless]

Ответить на тему
 
Автор
Сообщение

Пост 31-Мар-2016 02:28

[Q] 

Дядя Вова

Гроза морей

-Various Artists - Symphonic & Opera Metal - Vol. 1 - 2CDs-- Год издания: 2015
Жанр: Symphonic/Opera/Gothic/Power Metal
Продолжительность: 02:32:58-Лейбл издания: GoldenCore Records
Тип альбома: Compilation
Страна-выпуска диска: Germany
Номер по каталогу: GCR 81064-2
Источник (релизер): RMT-Формат: FLAC
Битрейт аудио: lossless
Тип рипа: image+.cue
Наличие сканов в содержимом раздачи: да-
CD 01:
01. Avantasia - Spectres (6:13)
02. Freedom Call - Beyond (7:52)
03. Epica - The Second Stone (5:03)
04. Tarja - Neverlight (4:28)
05. Delain - Lullaby (4:52)
06. Xandria - Dreamkeeper (4:38)
07. Serenity - Symphony for the Quiet (5:00)
08. Powerwolf - Amen & Attack (3:58)
09. Iron Savior - From Far Beyond Time (5:19)
10. Elysion - Fairytale (3:32)
11. Arven - My Darkest Dream (4:54)
12. Leaves’ Eyes - Maid of Lorraine (5:14)
13. Exilia - In My Veins (3:25)
14. Diabulus in Musica - Inner Force (3:47)
15. Majesty - Pray for Thunder (6:07)
16. Ayreon - Diagnosis (2:50)
CD 02:
01. DragonForce - Symphony of the Night (5:22)
02. Gloryhammer - Quest for the Hammer of Glory (5:38)
03. Tears of Martyr - Lost Boys (5:26)
04. Tristania - Requiem (5:29)
05. Anette Olzon - Shine (3:30)
06. Liv Kristine feat. Michelle Darkness - Love Decay (4:44)
07. Amberian Dawn - Magic Forest (4:43)
08. Trail of Tears - Room 306 (4:20)
09. Voices of Destiny - Wolfpack (4:07)
10. Rhapsody of Fire - Angel of Light (7:06)
11. Sonata Arctica - Running Lights (4:25)
12. Wisdom - God Rest Your Soul (3:22)
13. Coronatus - The Elvenwell (I Can Give You…) (4:05)
14. Neopera - Destined Ways (4:32)
15. Manilla Road - The Battle of Bonchester Bridge (4:31)
16. Megaherz - Das Licht am Ende der Welt (4:28)
Exact Audio Copy V1.0 beta 3 from 29. August 2011
EAC extraction logfile from 18. March 2016, 15:12
Various Artists / Symphonic & Opera Metal Vol. 1 CD1
Used drive : TSSTcorpCDDVDW SH-S202N Adapter: 1 ID: 3
Read mode : Secure
Utilize accurate stream : Yes
Defeat audio cache : Yes
Make use of C2 pointers : No
Read offset correction : 6
Overread into Lead-In and Lead-Out : No
Fill up missing offset samples with silence : Yes
Delete leading and trailing silent blocks : No
Null samples used in CRC calculations : Yes
Used interface : Native Win32 interface for Win NT & 2000
Used output format : User Defined Encoder
Selected bitrate : 896 kBit/s
Quality : High
Add ID3 tag : No
Command line compressor : C:\Program Files (x86)\Exact Audio Copy\CUETools\CUETools.FLACCL.cmd.exe
Additional command line options : -7 --verify --cpu-threads 4 %source% -o %dest%
TOC of the extracted CD
Track | Start | Length | Start sector | End sector
---------------------------------------------------------
1 | 0:00.00 | 6:12.70 | 0 | 27969
2 | 6:12.70 | 7:51.60 | 27970 | 63354
3 | 14:04.55 | 5:03.33 | 63355 | 86112
4 | 19:08.13 | 4:28.17 | 86113 | 106229
5 | 23:36.30 | 4:52.02 | 106230 | 128131
6 | 28:28.32 | 4:37.52 | 128132 | 148958
7 | 33:06.09 | 5:00.07 | 148959 | 171465
8 | 38:06.16 | 3:57.46 | 171466 | 189286
9 | 42:03.62 | 5:19.36 | 189287 | 213247
10 | 47:23.23 | 3:32.19 | 213248 | 229166
11 | 50:55.42 | 4:54.35 | 229167 | 251251
12 | 55:50.02 | 5:13.61 | 251252 | 274787
13 | 61:03.63 | 3:24.56 | 274788 | 290143
14 | 64:28.44 | 3:46.44 | 290144 | 307137
15 | 68:15.13 | 6:06.55 | 307138 | 334642
16 | 74:21.68 | 2:50.07 | 334643 | 347399
Range status and errors
Selected range
Filename C:\EAC\Symphonic & Opera Metal\2015 - Symphonic & Opera Metal Vol. 1\Symphonic & Opera Metal Vol. 1 CD1.wav
Peak level 96.6 %
Extraction speed 4.6 X
Range quality 99.9 %
Copy CRC 6DFFB9C6
Copy OK
No errors occurred
AccurateRip summary
Track 1 not present in database
Track 2 not present in database
Track 3 not present in database
Track 4 not present in database
Track 5 not present in database
Track 6 not present in database
Track 7 not present in database
Track 8 not present in database
Track 9 not present in database
Track 10 not present in database
Track 11 not present in database
Track 12 not present in database
Track 13 not present in database
Track 14 not present in database
Track 15 not present in database
Track 16 not present in database
None of the tracks are present in the AccurateRip database
End of status report
---- CUETools DB Plugin V2.1.3
[CTDB TOCID: _jy51hTMTO3ENU1sLl3zdiACJaE-] found, Submit result: already submitted
[1bc4b8a5] (2/2) Accurately ripped
==== Log checksum B9A304F6440D677CFA24FBC7B10ADE070D30740CDB0B4A8AF70BD7DD6760AE70 ====
Exact Audio Copy V1.0 beta 3 from 29. August 2011
EAC extraction logfile from 18. March 2016, 15:24
Various Artists / Symphonic & Opera Metal Vol. 1 CD2
Used drive : TSSTcorpCDDVDW SH-S202N Adapter: 1 ID: 3
Read mode : Secure
Utilize accurate stream : Yes
Defeat audio cache : Yes
Make use of C2 pointers : No
Read offset correction : 6
Overread into Lead-In and Lead-Out : No
Fill up missing offset samples with silence : Yes
Delete leading and trailing silent blocks : No
Null samples used in CRC calculations : Yes
Used interface : Native Win32 interface for Win NT & 2000
Used output format : User Defined Encoder
Selected bitrate : 896 kBit/s
Quality : High
Add ID3 tag : No
Command line compressor : C:\Program Files (x86)\Exact Audio Copy\CUETools\CUETools.FLACCL.cmd.exe
Additional command line options : -7 --verify --cpu-threads 4 %source% -o %dest%
TOC of the extracted CD
Track | Start | Length | Start sector | End sector
---------------------------------------------------------
1 | 0:00.00 | 5:22.13 | 0 | 24162
2 | 5:22.13 | 5:38.20 | 24163 | 49532
3 | 11:00.33 | 5:25.67 | 49533 | 73974
4 | 16:26.25 | 5:28.40 | 73975 | 98614
5 | 21:54.65 | 3:29.45 | 98615 | 114334
6 | 25:24.35 | 4:43.63 | 114335 | 135622
7 | 30:08.23 | 4:42.53 | 135623 | 156825
8 | 34:51.01 | 4:19.63 | 156826 | 176313
9 | 39:10.64 | 4:06.55 | 176314 | 194818
10 | 43:17.44 | 7:06.27 | 194819 | 226795
11 | 50:23.71 | 4:24.51 | 226796 | 246646
12 | 54:48.47 | 3:22.01 | 246647 | 261797
13 | 58:10.48 | 4:04.66 | 261798 | 280163
14 | 62:15.39 | 4:32.32 | 280164 | 300595
15 | 66:47.71 | 4:30.56 | 300596 | 320901
16 | 71:18.52 | 4:28.07 | 320902 | 341008
Range status and errors
Selected range
Filename C:\EAC\Symphonic & Opera Metal\2015 - Symphonic & Opera Metal Vol. 1\Symphonic & Opera Metal Vol. 1 CD2.wav
Peak level 96.6 %
Extraction speed 8.1 X
Range quality 100.0 %
Copy CRC 7C8638F0
Copy OK
No errors occurred
AccurateRip summary
Track 1 not present in database
Track 2 not present in database
Track 3 not present in database
Track 4 not present in database
Track 5 not present in database
Track 6 not present in database
Track 7 not present in database
Track 8 not present in database
Track 9 not present in database
Track 10 not present in database
Track 11 not present in database
Track 12 not present in database
Track 13 not present in database
Track 14 not present in database
Track 15 not present in database
Track 16 not present in database
None of the tracks are present in the AccurateRip database
End of status report
---- CUETools DB Plugin V2.1.3
[CTDB TOCID: HrEHArl3TGKsGc0Z7qBN0Ub74R0-] found, Submit result: HrEHArl3TGKsGc0Z7qBN0Ub74R0- has been confirmed
[80c13dc5] (4/4) Accurately ripped
==== Log checksum FCA5247F0DB1D5D7107AF90E85EF349038ACC1B2C2F16A02888A633F7C371CA4 ====
REM GENRE Metal
REM DATE 2015
REM DISCID F6121810
REM COMMENT "ExactAudioCopy v1.0b3"
PERFORMER "Various Artists"
TITLE "Symphonic & Opera Metal Vol. 1 CD1"
FILE "Symphonic & Opera Metal Vol. 1 CD1.flac" WAVE
TRACK 01 AUDIO
TITLE "Spectres"
PERFORMER "Avantasia"
INDEX 01 00:00:00
TRACK 02 AUDIO
TITLE "Beyond"
PERFORMER "Freedom Call"
INDEX 00 06:10:70
INDEX 01 06:12:70
TRACK 03 AUDIO
TITLE "The Second Stone"
PERFORMER "Epica"
INDEX 00 14:02:55
INDEX 01 14:04:55
TRACK 04 AUDIO
TITLE "Neverlight"
PERFORMER "Tarja"
INDEX 00 19:06:13
INDEX 01 19:08:13
TRACK 05 AUDIO
TITLE "Lullaby"
PERFORMER "Delain"
INDEX 00 23:34:30
INDEX 01 23:36:30
TRACK 06 AUDIO
TITLE "Dreamkeeper"
PERFORMER "Xandria"
INDEX 00 28:26:32
INDEX 01 28:28:32
TRACK 07 AUDIO
TITLE "Symphony for the Quiet"
PERFORMER "Serenity"
INDEX 00 33:04:09
INDEX 01 33:06:09
TRACK 08 AUDIO
TITLE "Amen & Attack"
PERFORMER "Powerwolf"
INDEX 00 38:04:16
INDEX 01 38:06:16
TRACK 09 AUDIO
TITLE "From Far Beyond Time"
PERFORMER "Iron Savior"
INDEX 00 42:01:62
INDEX 01 42:03:62
TRACK 10 AUDIO
TITLE "Fairytale"
PERFORMER "Elysion"
INDEX 00 47:21:23
INDEX 01 47:23:23
TRACK 11 AUDIO
TITLE "My Darkest Dream"
PERFORMER "Arven"
INDEX 00 50:53:42
INDEX 01 50:55:42
TRACK 12 AUDIO
TITLE "Maid of Lorraine"
PERFORMER "Leaves’ Eyes"
INDEX 00 55:48:02
INDEX 01 55:50:02
TRACK 13 AUDIO
TITLE "In My Veins"
PERFORMER "Exilia"
INDEX 00 61:01:63
INDEX 01 61:03:63
TRACK 14 AUDIO
TITLE "Inner Force"
PERFORMER "Diabulus in Musica"
INDEX 00 64:26:44
INDEX 01 64:28:44
TRACK 15 AUDIO
TITLE "Pray for Thunder"
PERFORMER "Majesty"
INDEX 00 68:13:13
INDEX 01 68:15:13
TRACK 16 AUDIO
TITLE "Diagnosis"
PERFORMER "Ayreon"
INDEX 00 74:19:68
INDEX 01 74:21:68
======================================================
REM GENRE Metal
REM DATE 2015
REM DISCID E111C210
REM COMMENT "ExactAudioCopy v1.0b3"
PERFORMER "Various Artists"
TITLE "Symphonic & Opera Metal Vol. 1 CD2"
FILE "Symphonic & Opera Metal Vol. 1 CD2.flac" WAVE
TRACK 01 AUDIO
TITLE "Symphony of the Night"
PERFORMER "DragonForce"
INDEX 01 00:00:00
TRACK 02 AUDIO
TITLE "Quest for the Hammer of Glory"
PERFORMER "Gloryhammer"
INDEX 00 05:20:13
INDEX 01 05:22:13
TRACK 03 AUDIO
TITLE "Lost Boys"
PERFORMER "Tears of Martyr"
INDEX 00 10:58:33
INDEX 01 11:00:33
TRACK 04 AUDIO
TITLE "Requiem"
PERFORMER "Tristania"
INDEX 00 16:24:25
INDEX 01 16:26:25
TRACK 05 AUDIO
TITLE "Shine"
PERFORMER "Anette Olzon"
INDEX 00 21:52:65
INDEX 01 21:54:65
TRACK 06 AUDIO
TITLE "Love Decay"
PERFORMER "Liv Kristine feat. Michelle Darkness"
INDEX 00 25:22:35
INDEX 01 25:24:35
TRACK 07 AUDIO
TITLE "Magic Forest"
PERFORMER "Amberian Dawn"
INDEX 00 30:06:23
INDEX 01 30:08:23
TRACK 08 AUDIO
TITLE "Room 306"
PERFORMER "Trail of Tears"
INDEX 00 34:49:01
INDEX 01 34:51:01
TRACK 09 AUDIO
TITLE "Wolfpack"
PERFORMER "Voices of Destiny"
INDEX 00 39:08:64
INDEX 01 39:10:64
TRACK 10 AUDIO
TITLE "Angel of Light"
PERFORMER "Rhapsody of Fire"
INDEX 00 43:15:44
INDEX 01 43:17:44
TRACK 11 AUDIO
TITLE "Running Lights"
PERFORMER "Sonata Arctica"
INDEX 00 50:21:71
INDEX 01 50:23:71
TRACK 12 AUDIO
TITLE "God Rest Your Soul"
PERFORMER "Wisdom"
INDEX 00 54:46:47
INDEX 01 54:48:47
TRACK 13 AUDIO
TITLE "The Elvenwell (I Can Give You…)"
PERFORMER "Coronatus"
INDEX 00 58:08:48
INDEX 01 58:10:48
TRACK 14 AUDIO
TITLE "Destined Ways"
PERFORMER "Neopera"
INDEX 00 62:13:39
INDEX 01 62:15:39
TRACK 15 AUDIO
TITLE "The Battle of Bonchester Bridge"
PERFORMER "Manilla Road"
INDEX 00 66:45:71
INDEX 01 66:47:71
TRACK 16 AUDIO
TITLE "Das Licht am Ende der Welt"
PERFORMER "Megaherz"
INDEX 00 71:16:52
INDEX 01 71:18:52
Работаю не за Спасибо , а за ИДЕЮ.
Download / Скачать

Хотите скачать бесплатно? Зарегистрируйтесь на сайте (ссылка на регистрацию). Pirat.ca - самый быстрый торрент трекер в рунете!

Как скачивать  ·   Что такое торрент  ·   Рейтинг и ограничения

Алоизий

Флибустьер

Пост 01-Апр-2016 14:54 (спустя 1 день 12 часов)

[Q] 

Спасибо, качну!
[Профиль]  [ЛС] 
Показать сообщения:    
Ответить на тему

Текущее время: Сегодня 02:51

Часовой пояс: GMT + 4



Вы не можете начинать темы
Вы не можете отвечать на сообщения
Вы не можете редактировать свои сообщения
Вы не можете удалять свои сообщения
Вы не можете голосовать в опросах
Вы не можете прикреплять файлы к сообщениям
Вы не можете скачивать файлы

▼ Вниз