Уважаемый Гость!
Вы можете поддержать проект и зарегистрироваться у наших партнеров - онлайн-стратегия MyLands. При регистрации в игре Вы получите код, который сможете активировать после регистрации на pirat.ca и получить 1000 дублонов.

Ваш код:
d49a3625bbdee1b82b14274f97c375f8b2b2ee4c
 
     

(Power Metal) Metal Church - XI - 2016 [FLAC, image+.cue, lossless]

Ответить на тему
 
Автор
Сообщение

Пост 06-Апр-2016 01:13

[Q] 

Дядя Вова

Гроза морей

-Metal Church / XI-- Год издания: 2016
Страна: USA
Жанр: Power Metal
Продолжительность: 01:02:16-Лейбл издания: Nuclear Blast Records
Тип альбома: Master
Страна-выпуска диска: Germany
Номер по каталогу: [NB 3683-2, - 27361 36832]
Источник (релизер): RMT-Формат: FLAC
Битрейт аудио: lossless
Тип рипа: image+.cue
Наличие сканов в содержимом раздачи: да-
01.Reset
02.Killing Your Time
03.No Tomorrow
04.Signal Path
05.Sky Falls In
06.Needle and Suture
07.Shadow
08.Blow Your Mind
09.Soul Eating Machine
10.It Waits
11.Suffer Fools
12.Fan the Fire (Bonus Track)
Exact Audio Copy V1.1 from 23. June 2015
EAC extraction logfile from 1. April 2016, 20:40
Metal Church / XI
Used drive : ATAPI iHAS122 W Adapter: 2 ID: 0
Read mode : Secure
Utilize accurate stream : Yes
Defeat audio cache : Yes
Make use of C2 pointers : No
Read offset correction : 48
Overread into Lead-In and Lead-Out : No
Fill up missing offset samples with silence : Yes
Delete leading and trailing silent blocks : No
Null samples used in CRC calculations : Yes
Used interface : Installed external ASPI interface
Used output format : User Defined Encoder
Selected bitrate : 1024 kBit/s
Quality : High
Add ID3 tag : No
Command line compressor : C:\Program Files\FLAC\flac.exe
Additional command line options : -V -8 -T "Date=%year%" -T "Genre=%genre%" -T"COMMENT=Ripped by Ilijan" -8 -V %source%
TOC of the extracted CD
Track | Start | Length | Start sector | End sector
---------------------------------------------------------
1 | 0:00.00 | 3:53.33 | 0 | 17507
2 | 3:53.33 | 5:06.41 | 17508 | 40498
3 | 8:59.74 | 5:08.66 | 40499 | 63664
4 | 14:08.65 | 7:12.30 | 63665 | 96094
5 | 21:21.20 | 7:01.06 | 96095 | 127675
6 | 28:22.26 | 4:38.46 | 127676 | 148571
7 | 33:00.72 | 4:08.61 | 148572 | 167232
8 | 37:09.58 | 6:28.58 | 167233 | 196390
9 | 43:38.41 | 4:41.13 | 196391 | 217478
10 | 48:19.54 | 5:15.15 | 217479 | 241118
11 | 53:34.69 | 4:54.44 | 241119 | 263212
12 | 58:29.38 | 3:46.59 | 263213 | 280221
Range status and errors
Selected range
Filename D:\ilко\Metal Church - XI.wav
Peak level 100.0 %
Extraction speed 3.2 X
Range quality 100.0 %
Test CRC 6B19A90F
Copy CRC 6B19A90F
Copy OK
No errors occurred
AccurateRip summary
Track 1 not present in database
Track 2 not present in database
Track 3 not present in database
Track 4 not present in database
Track 5 not present in database
Track 6 not present in database
Track 7 not present in database
Track 8 not present in database
Track 9 not present in database
Track 10 not present in database
Track 11 not present in database
Track 12 not present in database
None of the tracks are present in the AccurateRip database
End of status report
---- CUETools DB Plugin V2.1.6
[CTDB TOCID: eVN02sa4Ko5X6F4_mo3H0jOen2w-] found
Submit result: eVN02sa4Ko5X6F4_mo3H0jOen2w- has been confirmed
Track | CTDB Status
1 | (5/5) Accurately ripped
2 | (5/5) Accurately ripped
3 | (5/5) Accurately ripped
4 | (5/5) Accurately ripped
5 | (5/5) Accurately ripped
6 | (5/5) Accurately ripped
7 | (5/5) Accurately ripped
8 | (5/5) Accurately ripped
9 | (5/5) Accurately ripped
10 | (5/5) Accurately ripped
11 | (5/5) Accurately ripped
12 | (5/5) Accurately ripped
==== Log checksum 6647FEF82C6D12AF84EA49B3DD65051E7DCFC8FEA0BE789175DDBB5A92883374 ====
REM GENRE Power Metal
REM DATE 2016
REM DISCID 850E980C
REM COMMENT 22 Mar, 2016 Europe
PERFORMER "Metal Church"
TITLE "XI"
FILE "Metal Church - XI.flac" WAVE
TRACK 01 AUDIO
TITLE "Reset"
INDEX 01 00:00:00
TRACK 02 AUDIO
TITLE "Killing Your Time"
INDEX 01 03:53:33
TRACK 03 AUDIO
TITLE "No Tomorrow"
INDEX 01 08:59:74
TRACK 04 AUDIO
TITLE "Signal Path"
INDEX 01 14:08:65
TRACK 05 AUDIO
TITLE "Sky Falls In"
INDEX 01 21:21:20
TRACK 06 AUDIO
TITLE "Needle & Suture"
INDEX 01 28:22:26
TRACK 07 AUDIO
TITLE "Shadow"
INDEX 01 33:00:72
TRACK 08 AUDIO
TITLE "Blow Your Mind"
INDEX 01 37:09:58
TRACK 09 AUDIO
TITLE "Soul Eating Machine"
INDEX 01 43:38:41
TRACK 10 AUDIO
TITLE "It Waits"
INDEX 01 48:19:54
TRACK 11 AUDIO
TITLE "Suffer Fools"
INDEX 01 53:34:69
TRACK 12 AUDIO
TITLE "Fan the Fire (Bonus Track)"
INDEX 01 58:29:38
Работаю не за Спасибо , а за ИДЕЮ.
Download / Скачать

Хотите скачать бесплатно? Зарегистрируйтесь на сайте (ссылка на регистрацию). Pirat.ca - самый быстрый торрент трекер в рунете!

Как скачивать  ·   Что такое торрент  ·   Рейтинг и ограничения

Показать сообщения:    
Ответить на тему

Текущее время: Сегодня 19:36

Часовой пояс: GMT + 4



Вы не можете начинать темы
Вы не можете отвечать на сообщения
Вы не можете редактировать свои сообщения
Вы не можете удалять свои сообщения
Вы не можете голосовать в опросах
Вы не можете прикреплять файлы к сообщениям
Вы не можете скачивать файлы

▼ Вниз