Уважаемый Гость!
Вы можете поддержать проект и зарегистрироваться у наших партнеров - онлайн-стратегия MyLands. При регистрации в игре Вы получите код, который сможете активировать после регистрации на pirat.ca и получить 1000 дублонов.

Ваш код:
d49a3625bbdee1b82b14274f97c375f8b2b2ee4c
 
     

(Black Metal) Ragnarok - Psychopathology-(2cd edition) - 2016 [FLAC, image+.cue, lossless]

Ответить на тему
 
Автор
Сообщение

Пост 09-Апр-2016 21:54

[Q] 

Дядя Вова

Гроза морей

-Ragnarok / Psychopathology-(2cd edition)-- Год издания: 2016
Страна: Norway (Sarpsborg)
Жанр: Black Metal
Продолжительность: 49:20 + 79:30 = 02:08:50-Лейбл издания: Agonia Records
Тип альбома: Master + Compilation
Страна-выпуска диска: Poland
Номер по каталогу: [ARCD150 (149/151)]
Источник (релизер): RMT-Формат: FLAC
Битрейт аудио: lossless
Тип рипа: image+.cue
Наличие сканов в содержимом раздачи: да-
Альбом: Psychopathology
==========================================
01 - - Dominance & Submission
02 - - I Hate
03 - - Psychopathology
04 - - My Creator
05 - - Infernal Majesty
06 - - Heretic
07 - - Into The Abyss
08 - - The Eight Of The Seven Plagues
09 - - Lies
10 - - Blood
11 - - Where Dreams Go To Die
Альбом: Chaos And Insanity Between 1994-2004
==========================================
01 - - Intro
02 - - Pagan Land
03 - - From The Darkest Deep
04 - - Et Vinterland I Nord
05 - - Hammerens Slag
06 - - Ragnarok
07 - - Et Vinterland I Nord
08 - - Under The Wings Of Satan
09 - - Fainted Eyes (Celtic Frost Cover)
10 - - Live (The Blackdoor Miracle Tour 2004')
-
Exact Audio Copy V1.1 from 23. June 2015
EAC extraction logfile from 4. April 2016, 11:31
Ragnarok / Psychopathology
Used drive : HP DVD Writer 1170d Adapter: 1 ID: 1
Read mode : Secure
Utilize accurate stream : Yes
Defeat audio cache : Yes
Make use of C2 pointers : No
Read offset correction : 6
Overread into Lead-In and Lead-Out : No
Fill up missing offset samples with silence : Yes
Delete leading and trailing silent blocks : No
Null samples used in CRC calculations : Yes
Used interface : Native Win32 interface for Win NT & 2000
Used output format : User Defined Encoder
Selected bitrate : 1024 kBit/s
Quality : Low
Add ID3 tag : No
Command line compressor : C:\Program Files (x86)\Exact Audio Copy\FLAC\FLAC.EXE
Additional command line options : -V -8 -T "Date=%year%" -T "Genre=%genre%" -T"COMMENT=Ripped by Schkuro666" -8 -V %source%
TOC of the extracted CD
Track | Start | Length | Start sector | End sector
---------------------------------------------------------
1 | 0:00.00 | 4:47.03 | 0 | 21527
2 | 4:47.03 | 4:12.36 | 21528 | 40463
3 | 8:59.39 | 3:27.25 | 40464 | 56013
4 | 12:26.64 | 2:49.72 | 56014 | 68760
5 | 15:16.61 | 4:41.63 | 68761 | 89898
6 | 19:58.49 | 5:13.07 | 89899 | 113380
7 | 25:11.56 | 4:25.23 | 113381 | 133278
8 | 29:37.04 | 5:27.18 | 133279 | 157821
9 | 35:04.22 | 4:26.37 | 157822 | 177808
10 | 39:30.59 | 5:03.63 | 177809 | 200596
11 | 44:34.47 | 4:45.03 | 200597 | 221974
Range status and errors
Selected range
Filename C:\EAC\Schkuro666\Ragnarok - Psychopathology.wav
Peak level 98.9 %
Extraction speed 5.9 X
Range quality 100.0 %
Test CRC B1958CD4
Copy CRC B1958CD4
Copy OK
No errors occurred
AccurateRip summary
Track 1 not present in database
Track 2 not present in database
Track 3 not present in database
Track 4 not present in database
Track 5 not present in database
Track 6 not present in database
Track 7 not present in database
Track 8 not present in database
Track 9 not present in database
Track 10 not present in database
Track 11 not present in database
None of the tracks are present in the AccurateRip database
End of status report
---- CUETools DB Plugin V2.1.6
[CTDB TOCID: 5TSkeWfak7XHUKa4ZUjeBkSOHfg-] found
Submit result: already submitted
Track | CTDB Status
1 | (1/1) Accurately ripped
2 | (1/1) Accurately ripped
3 | (1/1) Accurately ripped
4 | (1/1) Accurately ripped
5 | (1/1) Accurately ripped
6 | (1/1) Accurately ripped
7 | (1/1) Accurately ripped
8 | (1/1) Accurately ripped
9 | (1/1) Accurately ripped
10 | (1/1) Accurately ripped
11 | (1/1) Accurately ripped
==== Log checksum BE60E451DB2B2B4469FCA54754CB0FE55AD8F967950C33DD3E1FB314A8BF4F1D ====
Exact Audio Copy V1.1 from 23. June 2015
EAC extraction logfile from 4. April 2016, 11:58
Ragnarok / Chaos And Insanity Between 1994-2004
Used drive : HP DVD Writer 1170d Adapter: 1 ID: 1
Read mode : Secure
Utilize accurate stream : Yes
Defeat audio cache : Yes
Make use of C2 pointers : No
Read offset correction : 6
Overread into Lead-In and Lead-Out : No
Fill up missing offset samples with silence : Yes
Delete leading and trailing silent blocks : No
Null samples used in CRC calculations : Yes
Used interface : Native Win32 interface for Win NT & 2000
Used output format : User Defined Encoder
Selected bitrate : 1024 kBit/s
Quality : Low
Add ID3 tag : No
Command line compressor : C:\Program Files (x86)\Exact Audio Copy\FLAC\FLAC.EXE
Additional command line options : -V -8 -T "Date=%year%" -T "Genre=%genre%" -T"COMMENT=Ripped by Schkuro666" -8 -V %source%
TOC of the extracted CD
Track | Start | Length | Start sector | End sector
---------------------------------------------------------
1 | 0:00.00 | 1:40.00 | 0 | 7499
2 | 1:40.00 | 2:38.00 | 7500 | 19349
3 | 4:18.00 | 4:39.37 | 19350 | 40311
4 | 8:57.37 | 5:44.00 | 40312 | 66111
5 | 14:41.37 | 3:54.00 | 66112 | 83661
6 | 18:35.37 | 5:16.11 | 83662 | 107372
7 | 23:51.48 | 5:17.12 | 107373 | 131159
8 | 29:08.60 | 4:52.01 | 131160 | 153060
9 | 34:00.61 | 4:57.10 | 153061 | 175345
10 | 38:57.71 | 40:31.45 | 175346 | 357715
Range status and errors
Selected range
Filename C:\EAC\Schkuro666\Ragnarok - Chaos And Insanity Between 1994-2004.wav
Peak level 100.0 %
Extraction speed 6.6 X
Range quality 100.0 %
Test CRC 8633121D
Copy CRC 8633121D
Copy OK
No errors occurred
AccurateRip summary
Track 1 not present in database
Track 2 not present in database
Track 3 not present in database
Track 4 not present in database
Track 5 not present in database
Track 6 not present in database
Track 7 not present in database
Track 8 not present in database
Track 9 not present in database
Track 10 not present in database
None of the tracks are present in the AccurateRip database
End of status report
---- CUETools DB Plugin V2.1.6
[CTDB TOCID: IoB4LLO2uVpwaFWDd9vDpiq4Egg-] found
Submit result: already submitted
Track | CTDB Status
1 | (1/1) Accurately ripped
2 | (1/1) Accurately ripped
3 | (1/1) Accurately ripped
4 | (1/1) Accurately ripped
5 | (1/1) Accurately ripped
6 | (1/1) Accurately ripped
7 | (1/1) Accurately ripped
8 | (1/1) Accurately ripped
9 | (1/1) Accurately ripped
10 | (1/1) Accurately ripped
==== Log checksum CD22B558B77C6F01B2DF51AF0F94FF8668190D11DF71DD3A54D650C0B38A19CC ====
-
REM GENRE Black Metal
REM DATE 2016
REM DISCID 950B8F0B
REM COMMENT March 25th, 2016 Poland
PERFORMER "Ragnarok"
TITLE "Psychopathology"
FILE "Ragnarok - Psychopathology.flac" WAVE
TRACK 01 AUDIO
TITLE "Dominance & Submission"
FLAGS DCP
INDEX 01 00:00:00
TRACK 02 AUDIO
TITLE "I Hate"
FLAGS DCP
INDEX 00 04:46:17
INDEX 01 04:47:03
TRACK 03 AUDIO
TITLE "Psychopathology"
FLAGS DCP
INDEX 00 08:57:39
INDEX 01 08:59:39
TRACK 04 AUDIO
TITLE "My Creator"
FLAGS DCP
INDEX 00 12:26:06
INDEX 01 12:26:64
TRACK 05 AUDIO
TITLE "Infernal Majesty"
FLAGS DCP
INDEX 00 15:15:45
INDEX 01 15:16:61
TRACK 06 AUDIO
TITLE "Heretic"
FLAGS DCP
INDEX 00 19:57:28
INDEX 01 19:58:49
TRACK 07 AUDIO
TITLE "Into The Abyss"
FLAGS DCP
INDEX 00 25:10:46
INDEX 01 25:11:56
TRACK 08 AUDIO
TITLE "The Eight Of The Seven Plagues"
FLAGS DCP
INDEX 00 29:35:48
INDEX 01 29:37:04
TRACK 09 AUDIO
TITLE "Lies"
FLAGS DCP
INDEX 00 35:03:11
INDEX 01 35:04:22
TRACK 10 AUDIO
TITLE "Blood"
FLAGS DCP
INDEX 00 39:29:39
INDEX 01 39:30:59
TRACK 11 AUDIO
TITLE "Where Dreams Go To Die"
FLAGS DCP
INDEX 00 44:33:58
INDEX 01 44:34:47
================================================================
REM GENRE Black Metal
REM DATE 2016
REM DISCID 6C12A10A
REM COMMENT March 25th, 2016 Poland
PERFORMER "Ragnarok"
TITLE "Chaos And Insanity Between 1994-2004"
FILE "Ragnarok - Chaos And Insanity Between 1994-2004.flac" WAVE
TRACK 01 AUDIO
TITLE "Intro"
INDEX 01 00:00:00
TRACK 02 AUDIO
TITLE "Pagan Land"
INDEX 01 01:40:00
TRACK 03 AUDIO
TITLE "From The Darkest Deep"
INDEX 01 04:18:00
TRACK 04 AUDIO
TITLE "Et Vinterland I Nord"
INDEX 01 08:57:37
TRACK 05 AUDIO
TITLE "Hammerens Slag"
INDEX 01 14:41:37
TRACK 06 AUDIO
TITLE "Ragnarok"
INDEX 01 18:35:37
TRACK 07 AUDIO
TITLE "Et Vinterland I Nord"
INDEX 01 23:51:48
TRACK 08 AUDIO
TITLE "Under The Wings Of Satan"
INDEX 01 29:08:60
TRACK 09 AUDIO
TITLE "Fainted Eyes (Celtic Frost Cover)"
INDEX 01 34:00:61
TRACK 10 AUDIO
TITLE "Live (The Blackdoor Miracle Tour 2004')"
INDEX 01 38:57:71
-
-
-Работаю не за Спасибо , а за ИДЕЮ.
Download / Скачать

Хотите скачать бесплатно? Зарегистрируйтесь на сайте (ссылка на регистрацию). Pirat.ca - самый быстрый торрент трекер в рунете!

Как скачивать  ·   Что такое торрент  ·   Рейтинг и ограничения

Показать сообщения:    
Ответить на тему

Текущее время: Сегодня 19:42

Часовой пояс: GMT + 4



Вы не можете начинать темы
Вы не можете отвечать на сообщения
Вы не можете редактировать свои сообщения
Вы не можете удалять свои сообщения
Вы не можете голосовать в опросах
Вы не можете прикреплять файлы к сообщениям
Вы не можете скачивать файлы

▼ Вниз