Уважаемый Гость!
Вы можете поддержать проект и зарегистрироваться у наших партнеров - онлайн-стратегия MyLands. При регистрации в игре Вы получите код, который сможете активировать после регистрации на pirat.ca и получить 1000 дублонов.

Ваш код:
b35b3ec45a7bd3f86315766471edc285be832af4
 
     

(Atmospheric Black Metal) Almyrkvi - Pupil Of The Searing Maelstrom (EP) - 2016 [FLAC, image+.cue, lossless]

Ответить на тему
 
Автор
Сообщение

Пост 17-Май-2016 02:16

[Q] 

Дядя Вова

Гроза морей

-Almyrkvi - Pupil Of The Searing Maelstrom (EP)-- Год издания: 2016
Страна: Iceland, Reykjavík
Жанр: Atmospheric Black Metal
Продолжительность: 00:26:10-Лейбл издания: Van Records
Тип альбома: EP
Страна-выпуска диска: Germany
Номер по каталогу: [VAN185]
Источник (релизер): RMT-Формат: FLAC
Битрейт аудио: lossless
Тип рипа: image+.cue
Наличие сканов в содержимом раздачи: да-
01. Primeval 04:42
02. Shrouded In Blinding Light 05:31
03. Currents Of Detestation 05:50
04. Feeding The Void 04:47
05. Pupil Of The Searing Maelstrom 05:18
-
Exact Audio Copy V1.1 from 23. June 2015
EAC extraction logfile from 21. April 2016, 15:37
Almyrkvi / Pupil Of The Searing Maelstrom (Ltd. Ed.)
Used drive : HP DVD Writer 1170d Adapter: 1 ID: 1
Read mode : Secure
Utilize accurate stream : Yes
Defeat audio cache : Yes
Make use of C2 pointers : No
Read offset correction : 6
Overread into Lead-In and Lead-Out : No
Fill up missing offset samples with silence : Yes
Delete leading and trailing silent blocks : No
Null samples used in CRC calculations : Yes
Used interface : Native Win32 interface for Win NT & 2000
Used output format : User Defined Encoder
Selected bitrate : 1024 kBit/s
Quality : Low
Add ID3 tag : No
Command line compressor : C:\Program Files (x86)\Exact Audio Copy\FLAC\FLAC.EXE
Additional command line options : -V -8 -T "Date=%year%" -T "Genre=%genre%" -T"COMMENT=Ripped by Schkuro666" -8 -V %source%
TOC of the extracted CD
Track | Start | Length | Start sector | End sector
---------------------------------------------------------
1 | 0:00.00 | 4:41.74 | 0 | 21148
2 | 4:41.74 | 5:31.56 | 21149 | 46029
3 | 10:13.55 | 5:50.49 | 46030 | 72328
4 | 16:04.29 | 4:47.04 | 72329 | 93857
5 | 20:51.33 | 5:18.07 | 93858 | 117714
Range status and errors
Selected range
Filename C:\EAC\Schkuro666\Almyrkvi - Pupil Of The Searing Maelstrom (Ltd. Ed.).wav
Peak level 96.6 %
Extraction speed 5.7 X
Range quality 100.0 %
Test CRC 0A23D428
Copy CRC 0A23D428
Copy OK
No errors occurred
AccurateRip summary
Track 1 not present in database
Track 2 not present in database
Track 3 not present in database
Track 4 not present in database
Track 5 not present in database
None of the tracks are present in the AccurateRip database
End of status report
---- CUETools DB Plugin V2.1.6
[CTDB TOCID: H44omXw4hk5GkFll6ghJOc8ViHc-] disk not present in database
Submit result: H44omXw4hk5GkFll6ghJOc8ViHc- has been uploaded
==== Log checksum E78A14071A305E4ED30825A5D859F61699CA8C396F540B9585947C735D8B5CD3 ====
-
REM GENRE Atmospheric Black Metal
REM DATE 2016
REM DISCID 3B062105
REM COMMENT Feb 2016, Germany
PERFORMER "Almyrkvi"
TITLE "Pupil Of The Searing Maelstrom"
FILE "Almyrkvi - Pupil Of The Searing Maelstrom.flac" WAVE
TRACK 01 AUDIO
TITLE "Primeval"
INDEX 01 00:00:00
TRACK 02 AUDIO
TITLE "Shrouded In Blinding Light"
INDEX 01 04:41:74
TRACK 03 AUDIO
TITLE "Currents Of Detestation"
INDEX 01 10:13:55
TRACK 04 AUDIO
TITLE "Feeding The Void"
INDEX 01 16:04:29
TRACK 05 AUDIO
TITLE "Pupil Of The Searing Maelstrom"
INDEX 01 20:51:33
-
-
-Работаю не за Спасибо , а за ИДЕЮ.-
Download / Скачать

Хотите скачать бесплатно? Зарегистрируйтесь на сайте (ссылка на регистрацию). Pirat.ca - самый быстрый торрент трекер в рунете!

Как скачивать  ·   Что такое торрент  ·   Рейтинг и ограничения

julikam

Гроза морей

Пост 17-Май-2016 23:18 (спустя 21 час)

[Q] 

Спасибо! ar

_________________

Не может быть отремонтировано только то, что не сломано.
[Профиль]  [ЛС] 

BilG

Корсар

Пост 13-Мар-2017 12:59 (спустя 9 месяцев 26 дней)

[Q] 

Супер ! Забираю Вы лучшие!

_________________
[Профиль]  [ЛС] 
Показать сообщения:    
Ответить на тему

Текущее время: Сегодня 19:00

Часовой пояс: GMT + 4



Вы не можете начинать темы
Вы не можете отвечать на сообщения
Вы не можете редактировать свои сообщения
Вы не можете удалять свои сообщения
Вы не можете голосовать в опросах
Вы не можете прикреплять файлы к сообщениям
Вы не можете скачивать файлы

▼ Вниз