Уважаемый Гость!
Вы можете поддержать проект и зарегистрироваться у наших партнеров - онлайн-стратегия MyLands. При регистрации в игре Вы получите код, который сможете активировать после регистрации на pirat.ca и получить 1000 дублонов.

Ваш код:
1b8effbb2d91248629d5897a85d0d1c4a4c433f0
 
     

(Melodic Death/Black/Folk Metal) Suidakra - Realms of Odoric (Limited Edition) - 2016 [FLAC, image+.cue, lossless]

Ответить на тему
 
Автор
Сообщение

Пост 29-Май-2016 00:58

[Q] 

Дядя Вова

Гроза морей

-Suidakra - Realms of Odoric (Limited Edition)-- Год издания: 2016
Страна: Düsseldorf, North Rhine-Westphalia, Germany
Жанр: Melodic Death/Black/Folk Metal
Продолжительность: 47:19-Лейбл издания: AFM Records
Тип альбома: Master
Страна-выпуска диска: 20 May, 2016 Germany
Номер по каталогу: [AFM 569-9]
Источник (релизер): RMT-Формат: FLAC
Битрейт аудио: lossless
Тип рипа: image+.cue
Наличие сканов в содержимом раздачи: да-
01. Into the Realm
02. The Serpent Within
03. The Hunter's Horde
04. Creeping Blood
05. Undaunted
06. Lion of Darcania
07. Pictish Pride
08. On Roads to Ruin
9. Dark Revelations
10. Braving the End
11. One Against the Tide
12. Cimbric Requiem
13. Remembrance (Bonus Track)
-
Exact Audio Copy V1.1 from 23. June 2015
EAC extraction logfile from 26. May 2016, 16:50
Suidakra / Realms of Odoric
Used drive : ATAPI iHAS122 W Adapter: 2 ID: 0
Read mode : Secure
Utilize accurate stream : Yes
Defeat audio cache : Yes
Make use of C2 pointers : No
Read offset correction : 48
Overread into Lead-In and Lead-Out : No
Fill up missing offset samples with silence : Yes
Delete leading and trailing silent blocks : No
Null samples used in CRC calculations : Yes
Used interface : Installed external ASPI interface
Used output format : User Defined Encoder
Selected bitrate : 1024 kBit/s
Quality : High
Add ID3 tag : No
Command line compressor : C:\Program Files\FLAC\flac.exe
Additional command line options : -V -8 -T "Date=%year%" -T "Genre=%genre%" -T"COMMENT=Ripped by Ilijan" -8 -V %source%
TOC of the extracted CD
Track | Start | Length | Start sector | End sector
---------------------------------------------------------
1 | 0:00.00 | 1:14.56 | 0 | 5605
2 | 1:14.56 | 4:09.09 | 5606 | 24289
3 | 5:23.65 | 4:27.25 | 24290 | 44339
4 | 9:51.15 | 2:02.66 | 44340 | 53555
5 | 11:54.06 | 4:00.18 | 53556 | 71573
6 | 15:54.24 | 5:11.42 | 71574 | 94940
7 | 21:05.66 | 4:00.36 | 94941 | 112976
8 | 25:06.27 | 3:42.66 | 112977 | 129692
9 | 28:49.18 | 4:09.57 | 129693 | 148424
10 | 32:59.00 | 3:38.25 | 148425 | 164799
11 | 36:37.25 | 3:54.15 | 164800 | 182364
12 | 40:31.40 | 4:09.32 | 182365 | 201071
13 | 44:40.72 | 2:38.43 | 201072 | 212964
Range status and errors
Selected range
Filename D:\ilко\Suidakra - Realms of Odoric.wav
Peak level 100.0 %
Extraction speed 3.7 X
Range quality 100.0 %
Test CRC C3BB4805
Copy CRC C3BB4805
Copy OK
No errors occurred
AccurateRip summary
Track 1 not present in database
Track 2 not present in database
Track 3 not present in database
Track 4 not present in database
Track 5 not present in database
Track 6 not present in database
Track 7 not present in database
Track 8 not present in database
Track 9 not present in database
Track 10 not present in database
Track 11 not present in database
Track 12 not present in database
Track 13 not present in database
None of the tracks are present in the AccurateRip database
End of status report
---- CUETools DB Plugin V2.1.6
[CTDB TOCID: mB2F2GbIKonAIxb8IIL.xVmEnbk-] found
Submit result: mB2F2GbIKonAIxb8IIL.xVmEnbk- has been confirmed
Track | CTDB Status
1 | (7/7) Accurately ripped
2 | (7/7) Accurately ripped
3 | (7/7) Accurately ripped
4 | (7/7) Accurately ripped
5 | (7/7) Accurately ripped
6 | (7/7) Accurately ripped
7 | (7/7) Accurately ripped
8 | (7/7) Accurately ripped
9 | (7/7) Accurately ripped
10 | (7/7) Accurately ripped
11 | (7/7) Accurately ripped
12 | (7/7) Accurately ripped
13 | (7/7) Accurately ripped
==== Log checksum 4418BCA7BDF7013A9D7DF01344253B6C491E0527FE0CE30D0B5CBCE90EEA4816 ====
-
REM GENRE Melodic Death/Black/Folk Metal
REM DATE 2016
REM DISCID BC0B170D
REM COMMENT 20 May, 2016 Germany
PERFORMER "Suidakra"
TITLE "Realms of Odoric"
FILE "Suidakra - Realms of Odoric.flac" WAVE
TRACK 01 AUDIO
TITLE "Into the Realm"
INDEX 01 00:00:00
TRACK 02 AUDIO
TITLE "The Serpent Within"
INDEX 01 01:14:56
TRACK 03 AUDIO
TITLE "The Hunter's Horde"
INDEX 01 05:23:65
TRACK 04 AUDIO
TITLE "Creeping Blood"
INDEX 01 09:51:15
TRACK 05 AUDIO
TITLE "Undaunted"
INDEX 01 11:54:06
TRACK 06 AUDIO
TITLE "Lion of Darcania"
INDEX 01 15:54:24
TRACK 07 AUDIO
TITLE "Pictish Pride"
INDEX 01 21:05:66
TRACK 08 AUDIO
TITLE "On Roads to Ruin"
INDEX 01 25:06:27
TRACK 09 AUDIO
TITLE "Dark Revelations"
INDEX 01 28:49:18
TRACK 10 AUDIO
TITLE "Braving the End"
INDEX 01 32:59:00
TRACK 11 AUDIO
TITLE "One Against the Tide"
INDEX 01 36:37:25
TRACK 12 AUDIO
TITLE "Cimbric Requiem"
INDEX 01 40:31:40
TRACK 13 AUDIO
TITLE "Remembrance (Bonus Track)"
INDEX 01 44:40:72
-
-
-Работаю не за Спасибо , а за ИДЕЮ.-
Download / Скачать

Хотите скачать бесплатно? Зарегистрируйтесь на сайте (ссылка на регистрацию). Pirat.ca - самый быстрый торрент трекер в рунете!

Как скачивать  ·   Что такое торрент  ·   Рейтинг и ограничения

Показать сообщения:    
Ответить на тему

Текущее время: Сегодня 02:52

Часовой пояс: GMT + 4



Вы не можете начинать темы
Вы не можете отвечать на сообщения
Вы не можете редактировать свои сообщения
Вы не можете удалять свои сообщения
Вы не можете голосовать в опросах
Вы не можете прикреплять файлы к сообщениям
Вы не можете скачивать файлы

▼ Вниз