Уважаемый Гость!
Вы можете поддержать проект и зарегистрироваться у наших партнеров - онлайн-стратегия MyLands. При регистрации в игре Вы получите код, который сможете активировать после регистрации на pirat.ca и получить 1000 дублонов.

Ваш код:
b35b3ec45a7bd3f86315766471edc285be832af4
 
     

(Symphonic/Technical Death Metal) Fleshgod Apocalypse - King-(2cd Limited Edition) - 2016 [FLAC, image+.cue, lossless]

Ответить на тему
 
Автор
Сообщение

Пост 04-Июн-2016 02:45

[Q] 

Дядя Вова

Гроза морей

-Fleshgod Apocalypse - King-(2cd Limited Edition)-- Год издания: 2016
Страна: Rome, Lazio, Italy
Жанр: Symphonic/Technical Death Metal
Продолжительность: 01:47:11-Лейбл издания: Nuclear Blast
Тип альбома: Master
Страна-выпуска диска: 05 Feb, 2016, Europe
Номер по каталогу: NB 3569-0, 27361 35690
Источник (релизер): RMT-Формат: FLAC
Битрейт аудио: lossless
Тип рипа: image+.cue
Наличие сканов в содержимом раздачи: да-
01. Marche Royale
02. In Aeternum
03. Healing Through War
04. The Fool
05. Cold as Perfection
06. Mitra
07. Paramour (Die Leidenschaft bringt Leiden)
08. And the Vulture Beholds
09. Gravity
10. A Million Deaths
11. Syphilis
12. King
Bonus CD - Orchestral Version
01. Marche Royale
02. In Aeternum
03. Healing Through War
04. The Fool
05. Cold as Perfection
06. Mitra
07. And the Vulture Beholds
08. Gravity
09. A Million Deaths
10. Syphilis
-
Exact Audio Copy V1.0 beta 3 from 29. August 2011
EAC extraction logfile from 1. June 2016, 20:28
Fleshgod Apocalypse / King (Orchestral Version)
Used drive : HL-DT-STDVD-RAM GH15L Adapter: 4 ID: 0
Read mode : Secure
Utilize accurate stream : Yes
Defeat audio cache : Yes
Make use of C2 pointers : No
Read offset correction : 667
Overread into Lead-In and Lead-Out : No
Fill up missing offset samples with silence : Yes
Delete leading and trailing silent blocks : No
Null samples used in CRC calculations : Yes
Used interface : Native Win32 interface for Win NT & 2000
Used output format : User Defined Encoder
Selected bitrate : 1024 kBit/s
Quality : High
Add ID3 tag : Yes
Command line compressor : C:\Program Files (x86)\Exact Audio Copy\Flac\flac.exe
Additional command line options : -6 -V -T "ARTIST=%artist%" -T "TITLE=%title%" -T "ALBUM=%albumtitle%" -T "DATE=%year%" -T "TRACKNUMBER=%tracknr%" -T "GENRE=%genre%" -T "COMMENT=%comment%" -T "BAND=%albuminterpret%" -T "ALBUMARTIST=%albuminterpret%" -T "COMPOSER=%composer%" %haslyrics%--tag-from-file=LYRICS="%lyricsfile%"%haslyrics% -T "DISCNUMBER=%cdnumber%" -T "TOTALDISCS=%totalcds%" -T "TOTALTRACKS=%numtracks%" %hascover%--picture="%coverfile%"%hascover% %source% -o %dest%
TOC of the extracted CD
Track | Start | Length | Start sector | End sector
---------------------------------------------------------
1 | 0:00.00 | 1:57.56 | 0 | 8830
2 | 1:57.56 | 5:27.01 | 8831 | 33356
3 | 7:24.57 | 4:43.04 | 33357 | 54585
4 | 12:07.61 | 4:06.27 | 54586 | 73062
5 | 16:14.13 | 6:32.29 | 73063 | 102491
6 | 22:46.42 | 3:46.58 | 102492 | 119499
7 | 26:33.25 | 5:12.46 | 119500 | 142945
8 | 31:45.71 | 5:11.71 | 142946 | 166341
9 | 36:57.67 | 5:27.37 | 166342 | 190903
10 | 42:25.29 | 7:15.46 | 190904 | 223574
Range status and errors
Selected range
Filename C:\Users\DAREK\Desktop\FLESHGOD APOCALYPSE [2016] [2CD] King\Fleshgod Apocalypse - King (Orchestral Version).wav
Peak level 100.0 %
Extraction speed 6.1 X
Range quality 100.0 %
Test CRC 0B938B71
Copy CRC 0B938B71
Copy OK
No errors occurred
AccurateRip summary
Track 1 accurately ripped (confidence 7) [166E5817] (AR v2)
Track 2 accurately ripped (confidence 7) [3CE3E271] (AR v2)
Track 3 accurately ripped (confidence 7) [D07E10F9] (AR v2)
Track 4 accurately ripped (confidence 7) [ECBAF00E] (AR v2)
Track 5 accurately ripped (confidence 7) [7BE0A9C9] (AR v2)
Track 6 accurately ripped (confidence 7) [07516421] (AR v2)
Track 7 accurately ripped (confidence 7) [200570A2] (AR v2)
Track 8 accurately ripped (confidence 7) [6B6B0729] (AR v2)
Track 9 accurately ripped (confidence 7) [6D0505EF] (AR v2)
Track 10 accurately ripped (confidence 7) [BBF4DFB9] (AR v2)
All tracks accurately ripped
End of status report
++++++++++++++++++++++++++++++++++++++++++
Exact Audio Copy V1.0 beta 3 from 29. August 2011
EAC extraction logfile from 1. June 2016, 20:09
Fleshgod Apocalypse / King
Used drive : HL-DT-STDVD-RAM GH15L Adapter: 4 ID: 0
Read mode : Secure
Utilize accurate stream : Yes
Defeat audio cache : Yes
Make use of C2 pointers : No
Read offset correction : 667
Overread into Lead-In and Lead-Out : No
Fill up missing offset samples with silence : Yes
Delete leading and trailing silent blocks : No
Null samples used in CRC calculations : Yes
Used interface : Native Win32 interface for Win NT & 2000
Used output format : User Defined Encoder
Selected bitrate : 1024 kBit/s
Quality : High
Add ID3 tag : Yes
Command line compressor : C:\Program Files (x86)\Exact Audio Copy\Flac\flac.exe
Additional command line options : -6 -V -T "ARTIST=%artist%" -T "TITLE=%title%" -T "ALBUM=%albumtitle%" -T "DATE=%year%" -T "TRACKNUMBER=%tracknr%" -T "GENRE=%genre%" -T "COMMENT=%comment%" -T "BAND=%albuminterpret%" -T "ALBUMARTIST=%albuminterpret%" -T "COMPOSER=%composer%" %haslyrics%--tag-from-file=LYRICS="%lyricsfile%"%haslyrics% -T "DISCNUMBER=%cdnumber%" -T "TOTALDISCS=%totalcds%" -T "TOTALTRACKS=%numtracks%" %hascover%--picture="%coverfile%"%hascover% %source% -o %dest%
TOC of the extracted CD
Track | Start | Length | Start sector | End sector
---------------------------------------------------------
1 | 0:00.00 | 1:57.58 | 0 | 8832
2 | 1:57.58 | 5:25.48 | 8833 | 33255
3 | 7:23.31 | 4:43.03 | 33256 | 54483
4 | 12:06.34 | 4:06.28 | 54484 | 72961
5 | 16:12.62 | 6:31.37 | 72962 | 102323
6 | 22:44.24 | 3:49.16 | 102324 | 119514
7 | 26:33.40 | 3:42.67 | 119515 | 136231
8 | 30:16.32 | 5:12.48 | 136232 | 159679
9 | 35:29.05 | 5:12.06 | 159680 | 183085
10 | 40:41.11 | 5:27.26 | 183086 | 207636
11 | 46:08.37 | 7:22.14 | 207637 | 240800
12 | 53:30.51 | 3:59.24 | 240801 | 258749
Range status and errors
Selected range
Filename C:\Users\DAREK\Desktop\FLESHGOD APOCALYPSE [2016] [2CD] King\Fleshgod Apocalypse - King.wav
Peak level 100.0 %
Extraction speed 6.2 X
Range quality 100.0 %
Test CRC AAE55042
Copy CRC AAE55042
Copy OK
No errors occurred
AccurateRip summary
Track 1 accurately ripped (confidence 15) [1F1F26FF] (AR v2)
Track 2 accurately ripped (confidence 15) [E7A9D195] (AR v2)
Track 3 accurately ripped (confidence 15) [249ED992] (AR v2)
Track 4 accurately ripped (confidence 15) [2A079A31] (AR v2)
Track 5 accurately ripped (confidence 15) [D294E01F] (AR v2)
Track 6 accurately ripped (confidence 15) [7BC35ADF] (AR v2)
Track 7 accurately ripped (confidence 15) [84D7F693] (AR v2)
Track 8 accurately ripped (confidence 15) [4344D6FE] (AR v2)
Track 9 accurately ripped (confidence 15) [E7DE178F] (AR v2)
Track 10 accurately ripped (confidence 15) [4202A97F] (AR v2)
Track 11 accurately ripped (confidence 15) [1C450BE1] (AR v2)
Track 12 accurately ripped (confidence 15) [0D233667] (AR v2)
All tracks accurately ripped
End of status report
-
REM GENRE Symphonic/Technical Death Metal
REM DATE 2016
REM COMMENT 2016, Europe, Limited Edition, Digipak, DR8
PERFORMER "Fleshgod Apocalypse"
TITLE "King (Orchestral Version)"
FILE "Fleshgod Apocalypse - King (Orchestral Version).flac" WAVE
TRACK 01 AUDIO
TITLE "Marche Royale"
INDEX 01 00:00:00
TRACK 02 AUDIO
TITLE "In Aeternum"
INDEX 01 01:57:56
TRACK 03 AUDIO
TITLE "Healing Through War"
INDEX 01 07:24:57
TRACK 04 AUDIO
TITLE "The Fool"
INDEX 01 12:07:61
TRACK 05 AUDIO
TITLE "Cold As Perfection"
INDEX 01 16:14:13
TRACK 06 AUDIO
TITLE "Mitra"
INDEX 01 22:46:42
TRACK 07 AUDIO
TITLE "And The Vulture Beholds"
INDEX 01 26:33:25
TRACK 08 AUDIO
TITLE "Gravity"
INDEX 01 31:45:71
TRACK 09 AUDIO
TITLE "A Million Deaths"
INDEX 01 36:57:67
TRACK 10 AUDIO
TITLE "Syphilis"
INDEX 01 42:25:29
===================================
REM GENRE Symphonic/Technical Death Metal
REM DATE 2016
REM COMMENT 2016, Europe, Limited Edition, Digipak, DR7
PERFORMER "Fleshgod Apocalypse"
TITLE "King"
FILE "Fleshgod Apocalypse - King.flac" WAVE
TRACK 01 AUDIO
TITLE "Marche Royale"
INDEX 01 00:00:00
TRACK 02 AUDIO
TITLE "In Aeternum"
INDEX 01 01:57:58
TRACK 03 AUDIO
TITLE "Healing Through War"
INDEX 01 07:23:31
TRACK 04 AUDIO
TITLE "The Fool"
INDEX 01 12:06:34
TRACK 05 AUDIO
TITLE "Cold As Perfection"
INDEX 01 16:12:62
TRACK 06 AUDIO
TITLE "Mitra"
INDEX 01 22:44:24
TRACK 07 AUDIO
TITLE "Paramour (Die Liedenschaft Bringt Leiden)"
INDEX 01 26:33:40
TRACK 08 AUDIO
TITLE "And The Vulture Beholds"
INDEX 01 30:16:32
TRACK 09 AUDIO
TITLE "Gravity"
INDEX 01 35:29:05
TRACK 10 AUDIO
TITLE "A Million Deaths"
INDEX 01 40:41:11
TRACK 11 AUDIO
TITLE "Syphilis"
INDEX 01 46:08:37
TRACK 12 AUDIO
TITLE "King"
INDEX 01 53:30:51
-
-
--Работаю не за Спасибо , а за ИДЕЮ.--
Download / Скачать

Хотите скачать бесплатно? Зарегистрируйтесь на сайте (ссылка на регистрацию). Pirat.ca - самый быстрый торрент трекер в рунете!

Как скачивать  ·   Что такое торрент  ·   Рейтинг и ограничения

Показать сообщения:    
Ответить на тему

Текущее время: Сегодня 18:59

Часовой пояс: GMT + 4



Вы не можете начинать темы
Вы не можете отвечать на сообщения
Вы не можете редактировать свои сообщения
Вы не можете удалять свои сообщения
Вы не можете голосовать в опросах
Вы не можете прикреплять файлы к сообщениям
Вы не можете скачивать файлы

▼ Вниз