Уважаемый Гость!
Вы можете поддержать проект и зарегистрироваться у наших партнеров - онлайн-стратегия MyLands. При регистрации в игре Вы получите код, который сможете активировать после регистрации на pirat.ca и получить 1000 дублонов.

Ваш код:
b35b3ec45a7bd3f86315766471edc285be832af4
 
     

(Melodic Power Metal) Astralion - Outlaw - 2016 [FLAC, image+.cue, lossless]

Ответить на тему
 
Автор
Сообщение

Пост 10-Июн-2016 00:16

[Q] 

Дядя Вова

Гроза морей

-Astralion - Outlaw-- Год издания: 2016
Страна: Finland
Жанр: Melodic Power Metal
Продолжительность: 00:58:47-Лейбл издания: Limb Music
Тип альбома: Master
Страна-выпуска диска: May 6th, 2016, Germany
Номер по каталогу: LMP1604-159
Источник (релизер): RMT-Формат: FLAC
Битрейт аудио: lossless
Тип рипа: image+.cue
Наличие сканов в содержимом раздачи: да-
01. Deathphone (Final Destination)
02. Black Adder
03. Sacrificed & Immortalized
04. Be Careful What You Wish For
05. Nightmares Never Give Up
06. Wastelands of Ice
07. The Outlaw
08. Ghosts of Sahara
09. Heading West
10. The Great Palace of the Sea
-
Exact Audio Copy V1.1 from 23. June 2015
EAC extraction logfile from 26. May 2016, 18:40
Astralion / Outlaw
Used drive : ATAPI iHAS122 W Adapter: 2 ID: 0
Read mode : Secure
Utilize accurate stream : Yes
Defeat audio cache : Yes
Make use of C2 pointers : No
Read offset correction : 48
Overread into Lead-In and Lead-Out : No
Fill up missing offset samples with silence : Yes
Delete leading and trailing silent blocks : No
Null samples used in CRC calculations : Yes
Used interface : Installed external ASPI interface
Used output format : User Defined Encoder
Selected bitrate : 1024 kBit/s
Quality : High
Add ID3 tag : No
Command line compressor : C:\Program Files\FLAC\flac.exe
Additional command line options : -V -8 -T "Date=%year%" -T "Genre=%genre%" -T"COMMENT=Ripped by Ilijan" -8 -V %source%
TOC of the extracted CD
Track | Start | Length | Start sector | End sector
---------------------------------------------------------
1 | 0:00.00 | 6:09.22 | 0 | 27696
2 | 6:09.22 | 4:37.66 | 27697 | 48537
3 | 10:47.13 | 7:20.74 | 48538 | 81611
4 | 18:08.12 | 5:49.50 | 81612 | 107836
5 | 23:57.62 | 4:56.22 | 107837 | 130058
6 | 28:54.09 | 4:30.54 | 130059 | 150362
7 | 33:24.63 | 4:43.63 | 150363 | 171650
8 | 38:08.51 | 5:00.44 | 171651 | 194194
9 | 43:09.20 | 5:36.05 | 194195 | 219399
10 | 48:45.25 | 10:01.50 | 219400 | 264524
Range status and errors
Selected range
Filename D:\ilко\Astralion - Outlaw.wav
Peak level 98.8 %
Extraction speed 4.0 X
Range quality 100.0 %
Test CRC 362E5B06
Copy CRC 362E5B06
Copy OK
No errors occurred
AccurateRip summary
Track 1 not present in database
Track 2 not present in database
Track 3 not present in database
Track 4 not present in database
Track 5 not present in database
Track 6 not present in database
Track 7 not present in database
Track 8 not present in database
Track 9 not present in database
Track 10 not present in database
None of the tracks are present in the AccurateRip database
End of status report
---- CUETools DB Plugin V2.1.6
[CTDB TOCID: XY7ESfhXzI5N8jFVUh8GiUGXj44-] found
Submit result: XY7ESfhXzI5N8jFVUh8GiUGXj44- has been confirmed
Track | CTDB Status
1 | (1/1) Accurately ripped
2 | (1/1) Accurately ripped
3 | (1/1) Accurately ripped
4 | (1/1) Accurately ripped
5 | (1/1) Accurately ripped
6 | (1/1) Accurately ripped
7 | (1/1) Accurately ripped
8 | (1/1) Accurately ripped
9 | (1/1) Accurately ripped
10 | (1/1) Accurately ripped
==== Log checksum ABEBAE35058E0493E453F533CF3BB436F4FB996B01A0358C3F9212193D25A5BC ====
-
REM GENRE Melodic Power Metal
REM DATE 2016
REM COMMENT 2016, Germany, First Press, DR5
PERFORMER "Astralion"
TITLE "Outlaw"
FILE "Astralion - Outlaw.flac" WAVE
TRACK 01 AUDIO
TITLE "Deathphone (Final Destination)"
INDEX 01 00:00:00
TRACK 02 AUDIO
TITLE "Black Adder"
INDEX 01 06:09:22
TRACK 03 AUDIO
TITLE "Sacrificed & Immortalized"
INDEX 01 10:47:13
TRACK 04 AUDIO
TITLE "Be Careful What You Wish For"
INDEX 01 18:08:12
TRACK 05 AUDIO
TITLE "Nightmares Never Give Up"
INDEX 01 23:57:62
TRACK 06 AUDIO
TITLE "Wastelands Of Ice"
INDEX 01 28:54:09
TRACK 07 AUDIO
TITLE "The Outlaw"
INDEX 01 33:24:63
TRACK 08 AUDIO
TITLE "Ghosts Of Sahara"
INDEX 01 38:08:51
TRACK 09 AUDIO
TITLE "Heading West"
INDEX 01 43:09:20
TRACK 10 AUDIO
TITLE "The Great Palace Of The Sea"
INDEX 01 48:45:25
-
-
--Работаю не за Спасибо , а за ИДЕЮ.--
Download / Скачать

Хотите скачать бесплатно? Зарегистрируйтесь на сайте (ссылка на регистрацию). Pirat.ca - самый быстрый торрент трекер в рунете!

Как скачивать  ·   Что такое торрент  ·   Рейтинг и ограничения

BilG

Корсар

Пост 13-Мар-2017 12:52 (спустя 9 месяцев 3 дня)

[Q] 

Очень хорошо !

_________________
[Профиль]  [ЛС] 
Показать сообщения:    
Ответить на тему

Текущее время: Сегодня 18:57

Часовой пояс: GMT + 4



Вы не можете начинать темы
Вы не можете отвечать на сообщения
Вы не можете редактировать свои сообщения
Вы не можете удалять свои сообщения
Вы не можете голосовать в опросах
Вы не можете прикреплять файлы к сообщениям
Вы не можете скачивать файлы

▼ Вниз