Уважаемый Гость!
Вы можете поддержать проект и зарегистрироваться у наших партнеров - онлайн-стратегия MyLands. При регистрации в игре Вы получите код, который сможете активировать после регистрации на pirat.ca и получить 1000 дублонов.

Ваш код:
b35b3ec45a7bd3f86315766471edc285be832af4
 
     

(Symphonic Power Metal) Visions Of Atlantis - Old Routes - New Waters-(EP) - 2016 [FLAC, image+.cue, lossless]

Ответить на тему
 
Автор
Сообщение

Пост 14-Июн-2016 03:27

[Q] 

Дядя Вова

Гроза морей

-Visions Of Atlantis - Old Routes - New Waters-(EP)-- Год издания: 2016
Страна: Bruck an der Mur, Styria, Austria
Жанр: Symphonic Power Metal
Продолжительность: 00:25:38-Лейбл издания: Napalm Records
Тип альбома: (EP)
Страна-выпуска диска: April 22nd, 2016, Europe
Номер по каталогу: NPR 639 DP
Источник (релизер): RMT-Формат: FLAC
Битрейт аудио: lossless
Тип рипа: image+.cue
Наличие сканов в содержимом раздачи: да-
01. Lovebearing Storm
02. Lost
03. Winternight
04. Seven Seas
05. Last Shut Of You Eyes
-
Exact Audio Copy V1.1 from 23. June 2015
EAC extraction logfile from 8. June 2016, 13:42
Visions of Atlantis / Old Routes - New Waters
Used drive : ATAPI iHAS122 W Adapter: 2 ID: 0
Read mode : Secure
Utilize accurate stream : Yes
Defeat audio cache : Yes
Make use of C2 pointers : No
Read offset correction : 48
Overread into Lead-In and Lead-Out : No
Fill up missing offset samples with silence : Yes
Delete leading and trailing silent blocks : No
Null samples used in CRC calculations : Yes
Used interface : Installed external ASPI interface
Used output format : User Defined Encoder
Selected bitrate : 1024 kBit/s
Quality : High
Add ID3 tag : No
Command line compressor : C:\Program Files\FLAC\flac.exe
Additional command line options : -V -8 -T "Date=%year%" -T "Genre=%genre%" -T"COMMENT=Ripped by Ilijan" -8 -V %source%
TOC of the extracted CD
Track | Start | Length | Start sector | End sector
---------------------------------------------------------
1 | 0:00.00 | 6:56.57 | 0 | 31256
2 | 6:56.57 | 3:58.17 | 31257 | 49123
3 | 10:54.74 | 5:36.32 | 49124 | 74355
4 | 16:31.31 | 4:10.48 | 74356 | 93153
5 | 20:42.04 | 4:55.34 | 93154 | 115312
Range status and errors
Selected range
Filename D:\ilко\Visions of Atlantis - Old Routes - New Waters.wav
Peak level 99.7 %
Extraction speed 3.1 X
Range quality 99.9 %
Test CRC 262EB524
Copy CRC 262EB524
Copy OK
No errors occurred
AccurateRip summary
Track 1 accurately ripped (confidence 1) [4597F872] (AR v2)
Track 2 accurately ripped (confidence 1) [BA5C2B9A] (AR v2)
Track 3 accurately ripped (confidence 1) [007F8D31] (AR v2)
Track 4 accurately ripped (confidence 1) [8D554CDA] (AR v2)
Track 5 accurately ripped (confidence 1) [B7DF5F56] (AR v2)
All tracks accurately ripped
End of status report
---- CUETools DB Plugin V2.1.6
[CTDB TOCID: E7O5c0FGt5V0gTH76Q28FlnLw8c-] found
Submit result: E7O5c0FGt5V0gTH76Q28FlnLw8c- has been confirmed
Track | CTDB Status
1 | (4/4) Accurately ripped
2 | (4/4) Accurately ripped
3 | (4/4) Accurately ripped
4 | (4/4) Accurately ripped
5 | (4/4) Accurately ripped
==== Log checksum 5537F11E841112DBB4F27312E26C99A6BDA59AE9F7B483AD31DAB112525A374E ====
-
REM GENRE "Melodic/Symphonic Power Metal"
REM DATE 2016
REM COMMENT "2016, Europe, EP, Limited Edition, DR8"
PERFORMER "Visions of Atlantis"
TITLE "Old Routes - New Waters"
FILE "Visions of Atlantis - Old Routes - New Waters.flac" WAVE
TRACK 01 AUDIO
TITLE "Lovebearing Storm"
INDEX 01 00:00:00
TRACK 02 AUDIO
TITLE "Lost"
INDEX 01 06:56:57
TRACK 03 AUDIO
TITLE "Winternight"
INDEX 01 10:54:74
TRACK 04 AUDIO
TITLE "Seven Seas"
INDEX 01 16:31:31
TRACK 05 AUDIO
TITLE "Last Shut Of Your Eyes"
INDEX 01 20:42:04
-
-
--Работаю не за Спасибо , а за ИДЕЮ.--
Download / Скачать

Хотите скачать бесплатно? Зарегистрируйтесь на сайте (ссылка на регистрацию). Pirat.ca - самый быстрый торрент трекер в рунете!

Как скачивать  ·   Что такое торрент  ·   Рейтинг и ограничения

BilG

Корсар

Пост 04-Апр-2017 13:34 (спустя 9 месяцев 20 дней)

[Q] 


_________________
[Профиль]  [ЛС] 
Показать сообщения:    
Ответить на тему

Текущее время: Сегодня 19:00

Часовой пояс: GMT + 4



Вы не можете начинать темы
Вы не можете отвечать на сообщения
Вы не можете редактировать свои сообщения
Вы не можете удалять свои сообщения
Вы не можете голосовать в опросах
Вы не можете прикреплять файлы к сообщениям
Вы не можете скачивать файлы

▼ Вниз