Уважаемый Гость!
Вы можете поддержать проект и зарегистрироваться у наших партнеров - онлайн-стратегия MyLands. При регистрации в игре Вы получите код, который сможете активировать после регистрации на pirat.ca и получить 1000 дублонов.

Ваш код:
6ce94c87b14c77f4c9d9415fb160accb369c92d9
 
     

(Black Metal) Glorior Belli - The Flock That Welcomes Sundown - 2016 [FLAC, image+.cue, lossless]

Ответить на тему
 
Автор
Сообщение

Пост 25-Июн-2016 02:54

[Q] 

Дядя Вова

Гроза морей

-Glorior Belli - The Flock That Welcomes Sundown-- Год издания: 2016
Страна: Paris, Île-de-France, France
Жанр: Black Metal
Продолжительность: 46:03-Лейбл издания: Agonia Records
Тип альбома: Master
Страна-выпуска диска: 06 May, 2016 Poland
Номер по каталогу: [ARCD153]
Источник (релизер): RMT-Формат: FLAC
Битрейт аудио: lossless
Тип рипа: image+.cue
Наличие сканов в содержимом раздачи: да-
01. Lies-Strangled Skies
02. World So Spurious
03. Rebels in Disguise
04. Thrall of Illusions
05. Sundown (The Flock That Welcomes)
06. Satanists Out of Cosmic Jail
07. Upheaval in Chaos Waters
08. We Whose Glory Was Despised
-
Exact Audio Copy V1.1 from 23. June 2015
EAC extraction logfile from 23. June 2016, 15:26
Glorior Belli / Sundown (The Flock That Welcomes)
Used drive : PLEXTOR DVDR PX-891SA Adapter: 1 ID: 0
Read mode : Secure
Utilize accurate stream : Yes
Defeat audio cache : Yes
Make use of C2 pointers : No
Read offset correction : 6
Overread into Lead-In and Lead-Out : No
Fill up missing offset samples with silence : Yes
Delete leading and trailing silent blocks : No
Null samples used in CRC calculations : Yes
Used interface : Native Win32 interface for Win NT & 2000
Used output format : User Defined Encoder
Selected bitrate : 896 kBit/s
Quality : High
Add ID3 tag : No
Command line compressor : C:\Program Files (x86)\Exact Audio Copy\Flac\flac.exe
Additional command line options : -6 -V %source%
TOC of the extracted CD
Track | Start | Length | Start sector | End sector
---------------------------------------------------------
1 | 0:00.00 | 5:31.17 | 0 | 24841
2 | 5:31.17 | 5:52.10 | 24842 | 51251
3 | 11:23.27 | 4:29.53 | 51252 | 71479
4 | 15:53.05 | 8:26.55 | 71480 | 109484
5 | 24:19.60 | 4:58.62 | 109485 | 131896
6 | 29:18.47 | 4:52.49 | 131897 | 153845
7 | 34:11.21 | 5:07.45 | 153846 | 176915
8 | 39:18.66 | 6:44.10 | 176916 | 207225
Range status and errors
Selected range
Filename D:\MeTaLMaDNeSS.TeaM\Glorior Belli (FRA) - Sundown (The Flock That Welcomes)\Glorior Belli - Sundown (The Flock That Welcomes).wav
Peak level 98.8 %
Extraction speed 8.9 X
Range quality 100.0 %
Test CRC 3325EA30
Copy CRC 3325EA30
Copy OK
No errors occurred
AccurateRip summary
Track 1 not present in database
Track 2 not present in database
Track 3 not present in database
Track 4 not present in database
Track 5 not present in database
Track 6 not present in database
Track 7 not present in database
Track 8 not present in database
None of the tracks are present in the AccurateRip database
End of status report
---- CUETools DB Plugin V2.1.6
[CTDB TOCID: wXc8Ie48W.wlS11eEDC05UC.KtE-] found
Submit result: wXc8Ie48W.wlS11eEDC05UC.KtE- has been confirmed
Track | CTDB Status
1 | (1/1) Accurately ripped
2 | (1/1) Accurately ripped
3 | (1/1) Accurately ripped
4 | (1/1) Accurately ripped
5 | (1/1) Accurately ripped
6 | (1/1) Accurately ripped
7 | (1/1) Accurately ripped
8 | (1/1) Accurately ripped
==== Log checksum BD6DE4226C5144E90E7EE5AA38ED8BB423CE8584A3AF09621D1ECBA0B122200F ====
-
REM GENRE Black Metal
REM DATE 2016
REM DISCID 600ACB08
REM COMMENT 06 May, 2016 Poland
PERFORMER "Glorior Belli"
TITLE "Sundown (The Flock That Welcomes)"
FILE "Glorior Belli - Sundown (The Flock That Welcomes).flac" WAVE
TRACK 01 AUDIO
TITLE "Lies-Strangled Skies"
INDEX 01 00:00:00
TRACK 02 AUDIO
TITLE "World So Spurious"
INDEX 01 05:31:17
TRACK 03 AUDIO
TITLE "Rebels in Disguise"
INDEX 01 11:23:27
TRACK 04 AUDIO
TITLE "Thrall of Illusions "
INDEX 01 15:53:05
TRACK 05 AUDIO
TITLE "Sundown (The Flock That Welcomes)"
INDEX 01 24:19:60
TRACK 06 AUDIO
TITLE "Satanists Out of Cosmic Jail "
INDEX 01 29:18:47
TRACK 07 AUDIO
TITLE "Upheaval in Chaos Waters"
INDEX 01 34:11:21
TRACK 08 AUDIO
TITLE "We Whose Glory Was Despised"
INDEX 01 39:18:66
-
-
--Работаю не за Спасибо , а за ИДЕЮ.--
Download / Скачать

Хотите скачать бесплатно? Зарегистрируйтесь на сайте (ссылка на регистрацию). Pirat.ca - самый быстрый торрент трекер в рунете!

Как скачивать  ·   Что такое торрент  ·   Рейтинг и ограничения

BilG

Корсар

Пост 13-Мар-2017 13:56 (спустя 8 месяцев 18 дней)

[Q] 

Держи порох сухим, а шпагу острой !

_________________
[Профиль]  [ЛС] 
Показать сообщения:    
Ответить на тему

Текущее время: Сегодня 01:12

Часовой пояс: GMT + 4



Вы не можете начинать темы
Вы не можете отвечать на сообщения
Вы не можете редактировать свои сообщения
Вы не можете удалять свои сообщения
Вы не можете голосовать в опросах
Вы не можете прикреплять файлы к сообщениям
Вы не можете скачивать файлы

▼ Вниз