Уважаемый Гость!
Вы можете поддержать проект и зарегистрироваться у наших партнеров - онлайн-стратегия MyLands. При регистрации в игре Вы получите код, который сможете активировать после регистрации на pirat.ca и получить 1000 дублонов.

Ваш код:
bf76b4fde44c7189cfb4d32d5b204facc1d6d492
 
     

(Heavy Metal) Hitten - State Of Shock - 2016 [FLAC, image+.cue, lossless]

Ответить на тему
 
Автор
Сообщение

Пост 27-Июн-2016 16:33

[Q] 

Дядя Вова

Гроза морей

-Hitten - State Of Shock-- Год издания: 2016
Страна: Spain
Жанр: Heavy Metal
Продолжительность: 00:56:07-Лейбл издания: Spiritual Beast
Тип альбома: Master
Страна-выпуска диска: April 20th, 2016, Japan
Номер по каталогу: IUCP-16238
Источник (релизер): RMT-Формат: FLAC
Битрейт аудио: lossless
Тип рипа: image+.cue
Наличие сканов в содержимом раздачи: да-
01. Wrong Side of Heaven
02. Don't Be Late
03. Can't Bring Me Down
04. Victim Of The Night
05. Rites Of The Priest
06. State Of Shock
07. Liar
08. Endless Race
09. Chained To Insanity
10. Eternal Force
11. Red Lights (Bonus Track)
12. Shout & Cry (Bonus Track)
-
Exact Audio Copy V1.1 from 23. June 2015
EAC extraction logfile from 25. April 2016, 16:16
Hitten / State Of Shock (Japan)
Used drive : ATAPI iHAS122 W Adapter: 2 ID: 0
Read mode : Secure
Utilize accurate stream : Yes
Defeat audio cache : Yes
Make use of C2 pointers : No
Read offset correction : 48
Overread into Lead-In and Lead-Out : No
Fill up missing offset samples with silence : Yes
Delete leading and trailing silent blocks : No
Null samples used in CRC calculations : Yes
Used interface : Installed external ASPI interface
Used output format : User Defined Encoder
Selected bitrate : 1024 kBit/s
Quality : High
Add ID3 tag : No
Command line compressor : C:\Program Files\FLAC\flac.exe
Additional command line options : -V -8 -T "Date=%year%" -T "Genre=%genre%" -T"COMMENT=Ripped by Ilijan" -8 -V %source%
TOC of the extracted CD
Track | Start | Length | Start sector | End sector
---------------------------------------------------------
1 | 0:00.00 | 5:44.42 | 0 | 25841
2 | 5:44.42 | 4:54.30 | 25842 | 47921
3 | 10:38.72 | 4:46.19 | 47922 | 69390
4 | 15:25.16 | 4:12.20 | 69391 | 88310
5 | 19:37.36 | 5:28.14 | 88311 | 112924
6 | 25:05.50 | 3:29.38 | 112925 | 128637
7 | 28:35.13 | 3:44.12 | 128638 | 145449
8 | 32:19.25 | 4:03.04 | 145450 | 163678
9 | 36:22.29 | 6:17.61 | 163679 | 192014
10 | 42:40.15 | 4:55.35 | 192015 | 214174
11 | 47:35.50 | 4:45.15 | 214175 | 235564
12 | 52:20.65 | 3:46.07 | 235565 | 252521
Range status and errors
Selected range
Filename D:\ilко\Hitten - State Of Shock (Japan).wav
Peak level 100.0 %
Extraction speed 3.9 X
Range quality 100.0 %
Test CRC C33FF639
Copy CRC C33FF639
Copy OK
No errors occurred
AccurateRip summary
Track 1 not present in database
Track 2 not present in database
Track 3 not present in database
Track 4 not present in database
Track 5 not present in database
Track 6 not present in database
Track 7 not present in database
Track 8 not present in database
Track 9 not present in database
Track 10 not present in database
Track 11 not present in database
Track 12 not present in database
None of the tracks are present in the AccurateRip database
End of status report
---- CUETools DB Plugin V2.1.6
[CTDB TOCID: o6YurUdZ7quZ7VQnO2IMVzX1854-] found
Submit result: o6YurUdZ7quZ7VQnO2IMVzX1854- has been confirmed
Track | CTDB Status
1 | (1/1) Accurately ripped
2 | (1/1) Accurately ripped
3 | (1/1) Accurately ripped
4 | (1/1) Accurately ripped
5 | (1/1) Accurately ripped
6 | (1/1) Accurately ripped
7 | (1/1) Accurately ripped
8 | (1/1) Accurately ripped
9 | (1/1) Accurately ripped
10 | (1/1) Accurately ripped
11 | (1/1) Accurately ripped
12 | (1/1) Accurately ripped
==== Log checksum 768ACDBCE875DA01C297757EED3821FCCC1DE22DF9EF836D4B56BFB8AB854744 ====
-
REM GENRE Heavy Metal
REM DATE 2016
REM COMMENT 2016, Japan, First Press, DR8
PERFORMER "Hitten"
TITLE "State Of Shock"
FILE "Hitten - State Of Shock.flac" WAVE
TRACK 01 AUDIO
TITLE "Wrong Side Of Heaven"
INDEX 01 00:00:00
TRACK 02 AUDIO
TITLE "Don't Be Late"
INDEX 01 05:44:42
TRACK 03 AUDIO
TITLE "Can't Bring Me Down"
INDEX 01 10:38:72
TRACK 04 AUDIO
TITLE "Victim Of The Night"
INDEX 01 15:25:16
TRACK 05 AUDIO
TITLE "Rites Of The Priest"
INDEX 01 19:37:36
TRACK 06 AUDIO
TITLE "State Of Shock"
INDEX 01 25:05:50
TRACK 07 AUDIO
TITLE "Liar"
INDEX 01 28:35:13
TRACK 08 AUDIO
TITLE "Endless Race"
INDEX 01 32:19:25
TRACK 09 AUDIO
TITLE "Chained To Insanity"
INDEX 01 36:22:29
TRACK 10 AUDIO
TITLE "Eternal Force"
INDEX 01 42:40:15
TRACK 11 AUDIO
TITLE "Red Lights (Bonus Track)"
INDEX 00 47:33:50
INDEX 01 47:35:50
TRACK 12 AUDIO
TITLE "Shout & Cry (Bonus Track)"
INDEX 01 52:20:65
-
-
--Работаю не за Спасибо , а за ИДЕЮ.--
Download / Скачать

Хотите скачать бесплатно? Зарегистрируйтесь на сайте (ссылка на регистрацию). Pirat.ca - самый быстрый торрент трекер в рунете!

Как скачивать  ·   Что такое торрент  ·   Рейтинг и ограничения

BilG

Корсар

Пост 31-Мар-2017 16:36 (спустя 9 месяцев 4 дня)

[Q] 

Ку три раза Супер!

_________________
[Профиль]  [ЛС] 
Показать сообщения:    
Ответить на тему

Текущее время: Сегодня 12:27

Часовой пояс: GMT + 4



Вы не можете начинать темы
Вы не можете отвечать на сообщения
Вы не можете редактировать свои сообщения
Вы не можете удалять свои сообщения
Вы не можете голосовать в опросах
Вы не можете прикреплять файлы к сообщениям
Вы не можете скачивать файлы

▼ Вниз