Уважаемый Гость!
Вы можете поддержать проект и зарегистрироваться у наших партнеров - онлайн-стратегия MyLands. При регистрации в игре Вы получите код, который сможете активировать после регистрации на pirat.ca и получить 1000 дублонов.

Ваш код:
b35b3ec45a7bd3f86315766471edc285be832af4
 
     

(Power Metal, Speed Metal) Rage - The Devil Strikes Again (3 CD) - 2016 [FLAC, image+.cue, lossless]

Ответить на тему
 
Автор
Сообщение

Пост 01-Июл-2016 17:23

[Q] 

Дядя Вова

Гроза морей

- -Rage - The Devil Strikes Again-- Год издания: 2016
Страна: Herne, North Rhine-Westphalia, Germany
Жанр: Power Metal, Speed Metal
Продолжительность: 46:04 + 27:16 + 53:58 = 02:07:18-Лейбл издания: Nuclear Blast Records
Тип альбома: Compilation
Страна-выпуска диска: 10 Jun, 2016 Europe
Номер по каталогу: [27361 35505]
Источник (релизер): RMT-Формат: FLAC
Битрейт аудио: lossless
Тип рипа: image+.cue
Наличие сканов в содержимом раздачи: да-
Disc 1
1-1 The Devil Strikes Again 4:37
1-2 My Way 4:19
1-3 Back On Track 4:19
1-4 The Final Curtain 4:13
1-5 War 4:21
1-6 Ocean Full Of Tears 4:03
1-7 Deaf, Dumb And Blind 4:14
1-8 Spirits Of The Night 4:54
1-9 Times Of Darkness 5:13
1-10 The Dark Side Of The Sun 5:46
---------------------------------------------------------------------
Disc 2
2-1 Bring Me Down 5:05
2-2 Requiem 3:55
2-3 Into The Fire 5:26
2-4 Slave To The Grind 3:27
2-5 Bravado 4:36
2-6 Open Fire 4:42
---------------------------------------------------------------------
Disc 3
3-1 Black In Mind 4:59
3-2 Sent By The Devil 6:10
3-3 End Of All Days 5:03
3-4 Back in Time 5:28
3-5 Down 5:47
3-6 My Way 5:18
3-7 Until I Die 5:44
3-8 Don't Fear The Winter 4:55
3-9 Higher Than The Sky 10:35
-
Exact Audio Copy V1.1 from 23. June 2015
EAC extraction logfile from 24. June 2016, 18:25
Rage / The Devil Strikes Again
Used drive : ATAPI iHAS122 W Adapter: 2 ID: 0
Read mode : Secure
Utilize accurate stream : Yes
Defeat audio cache : Yes
Make use of C2 pointers : No
Read offset correction : 48
Overread into Lead-In and Lead-Out : No
Fill up missing offset samples with silence : Yes
Delete leading and trailing silent blocks : No
Null samples used in CRC calculations : Yes
Used interface : Installed external ASPI interface
Used output format : User Defined Encoder
Selected bitrate : 1024 kBit/s
Quality : High
Add ID3 tag : No
Command line compressor : C:\Program Files\FLAC\flac.exe
Additional command line options : -V -8 -T "Date=%year%" -T "Genre=%genre%" -T"COMMENT=Ripped by Ilijan" -8 -V %source%
TOC of the extracted CD
Track | Start | Length | Start sector | End sector
---------------------------------------------------------
1 | 0:00.00 | 4:37.72 | 0 | 20846
2 | 4:37.72 | 4:19.40 | 20847 | 40311
3 | 8:57.37 | 4:19.23 | 40312 | 59759
4 | 13:16.60 | 4:12.72 | 59760 | 78731
5 | 17:29.57 | 4:21.09 | 78732 | 98315
6 | 21:50.66 | 4:02.62 | 98316 | 116527
7 | 25:53.53 | 4:14.74 | 116528 | 135651
8 | 30:08.52 | 4:54.39 | 135652 | 157740
9 | 35:03.16 | 5:13.43 | 157741 | 181258
10 | 40:16.59 | 5:46.73 | 181259 | 207281
Range status and errors
Selected range
Filename D:\ilко\Rage - The Devil Strikes Again.wav
Peak level 97.7 %
Extraction speed 3.7 X
Range quality 100.0 %
Test CRC BC4405F4
Copy CRC BC4405F4
Copy OK
No errors occurred
AccurateRip summary
Track 1 not present in database
Track 2 not present in database
Track 3 not present in database
Track 4 not present in database
Track 5 not present in database
Track 6 not present in database
Track 7 not present in database
Track 8 not present in database
Track 9 not present in database
Track 10 not present in database
None of the tracks are present in the AccurateRip database
End of status report
---- CUETools DB Plugin V2.1.6
[CTDB TOCID: sMNX.InVnuWo52OpjcZWyl0HW4s-] found
Submit result: sMNX.InVnuWo52OpjcZWyl0HW4s- has been confirmed
Track | CTDB Status
1 | (27/27) Accurately ripped
2 | (27/27) Accurately ripped
3 | (27/27) Accurately ripped
4 | (27/27) Accurately ripped
5 | (27/27) Accurately ripped
6 | (27/27) Accurately ripped
7 | (27/27) Accurately ripped
8 | (27/27) Accurately ripped
9 | (27/27) Accurately ripped
10 | (27/27) Accurately ripped
==== Log checksum 8A0D6B50142D45AF89E106480824FC79946767247DBC8BDEA08D354F8EFECC01 ====
Exact Audio Copy V1.1 from 23. June 2015
EAC extraction logfile from 24. June 2016, 18:46
Rage / The Devil Strikes Again (Bonus CD)
Used drive : ATAPI iHAS122 W Adapter: 2 ID: 0
Read mode : Secure
Utilize accurate stream : Yes
Defeat audio cache : Yes
Make use of C2 pointers : No
Read offset correction : 48
Overread into Lead-In and Lead-Out : No
Fill up missing offset samples with silence : Yes
Delete leading and trailing silent blocks : No
Null samples used in CRC calculations : Yes
Used interface : Installed external ASPI interface
Used output format : User Defined Encoder
Selected bitrate : 1024 kBit/s
Quality : High
Add ID3 tag : No
Command line compressor : C:\Program Files\FLAC\flac.exe
Additional command line options : -V -8 -T "Date=%year%" -T "Genre=%genre%" -T"COMMENT=Ripped by Ilijan" -8 -V %source%
TOC of the extracted CD
Track | Start | Length | Start sector | End sector
---------------------------------------------------------
1 | 0:00.00 | 5:05.35 | 0 | 22909
2 | 5:05.35 | 3:55.32 | 22910 | 40566
3 | 9:00.67 | 5:27.20 | 40567 | 65111
4 | 14:28.12 | 3:27.72 | 65112 | 80708
5 | 17:56.09 | 4:37.59 | 80709 | 101542
6 | 22:33.68 | 4:42.21 | 101543 | 122713
Range status and errors
Selected range
Filename D:\ilко\Rage - The Devil Strikes Again (Bonus CD).wav
Peak level 99.6 %
Extraction speed 3.3 X
Range quality 100.0 %
Test CRC E59CD0F0
Copy CRC E59CD0F0
Copy OK
No errors occurred
AccurateRip summary
Track 1 not present in database
Track 2 not present in database
Track 3 not present in database
Track 4 not present in database
Track 5 not present in database
Track 6 not present in database
None of the tracks are present in the AccurateRip database
End of status report
---- CUETools DB Plugin V2.1.6
[CTDB TOCID: ZwZtkdhYDa75D1RBuBX8q6i4OsU-] found
Submit result: ZwZtkdhYDa75D1RBuBX8q6i4OsU- has been confirmed
Track | CTDB Status
1 | (24/24) Accurately ripped
2 | (24/24) Accurately ripped
3 | (24/24) Accurately ripped
4 | (24/24) Accurately ripped
5 | (24/24) Accurately ripped
6 | (24/24) Accurately ripped
==== Log checksum E0DA0AF4A99F3A1B7D44F94BBFC8E8CCAF6F87A144034534A84CFFF8BF366A68 ====
Exact Audio Copy V1.1 from 23. June 2015
EAC extraction logfile from 24. June 2016, 20:07
Rage / Live In Warsaw 2016
Used drive : ATAPI iHAS122 W Adapter: 2 ID: 0
Read mode : Secure
Utilize accurate stream : Yes
Defeat audio cache : Yes
Make use of C2 pointers : No
Read offset correction : 48
Overread into Lead-In and Lead-Out : No
Fill up missing offset samples with silence : Yes
Delete leading and trailing silent blocks : No
Null samples used in CRC calculations : Yes
Used interface : Installed external ASPI interface
Used output format : User Defined Encoder
Selected bitrate : 1024 kBit/s
Quality : High
Add ID3 tag : No
Command line compressor : C:\Program Files\FLAC\flac.exe
Additional command line options : -V -8 -T "Date=%year%" -T "Genre=%genre%" -T"COMMENT=Ripped by Ilijan" -8 -V %source%
TOC of the extracted CD
Track | Start | Length | Start sector | End sector
---------------------------------------------------------
1 | 0:00.00 | 4:58.34 | 0 | 22383
2 | 4:58.34 | 6:10.05 | 22384 | 50138
3 | 11:08.39 | 5:03.25 | 50139 | 72888
4 | 16:11.64 | 5:28.15 | 72889 | 97503
5 | 21:40.04 | 5:47.24 | 97504 | 123552
6 | 27:27.28 | 5:17.51 | 123553 | 147378
7 | 32:45.04 | 5:43.49 | 147379 | 173152
8 | 38:28.53 | 4:54.40 | 173153 | 195242
9 | 43:23.18 | 10:34.56 | 195243 | 242848
Range status and errors
Selected range
Filename D:\ilко\Rage - Live In Warsaw 2016.wav
Peak level 94.4 %
Extraction speed 3.8 X
Range quality 99.9 %
Test CRC D84BED73
Copy CRC D84BED73
Copy OK
No errors occurred
AccurateRip summary
Track 1 not present in database
Track 2 not present in database
Track 3 not present in database
Track 4 not present in database
Track 5 not present in database
Track 6 not present in database
Track 7 not present in database
Track 8 not present in database
Track 9 not present in database
None of the tracks are present in the AccurateRip database
End of status report
---- CUETools DB Plugin V2.1.6
[CTDB TOCID: nXIyLAaBV.mSM36Yu.0LYz1lef8-] found
Submit result: nXIyLAaBV.mSM36Yu.0LYz1lef8- has been confirmed
Track | CTDB Status
1 | (3/3) Accurately ripped
2 | (3/3) Accurately ripped
3 | (3/3) Accurately ripped
4 | (3/3) Accurately ripped
5 | (3/3) Accurately ripped
6 | (3/3) Accurately ripped
7 | (3/3) Accurately ripped
8 | (3/3) Accurately ripped
9 | (3/3) Accurately ripped
==== Log checksum F162EC24106994A0F986ABCA88B4C1F0A022E875D9EA6FB48EE3DF71404E161E ====
-
REM GENRE Power/Speed Metal
REM DATE 2016
REM DISCID 7C0ACB0A
REM COMMENT 10 Jun, 2016 Europe
PERFORMER "Rage"
TITLE "The Devil Strikes Again"
FILE "Rage - The Devil Strikes Again.flac" WAVE
TRACK 01 AUDIO
TITLE "The Devil Strikes Again"
INDEX 01 00:00:00
TRACK 02 AUDIO
TITLE "My Way"
INDEX 00 04:37:69
INDEX 01 04:37:72
TRACK 03 AUDIO
TITLE "Back On Track"
INDEX 00 08:57:17
INDEX 01 08:57:37
TRACK 04 AUDIO
TITLE "The Final Curtain"
INDEX 00 13:16:57
INDEX 01 13:16:60
TRACK 05 AUDIO
TITLE "War"
INDEX 00 17:29:19
INDEX 01 17:29:57
TRACK 06 AUDIO
TITLE "Ocean Full Of Tears"
INDEX 00 21:50:52
INDEX 01 21:50:66
TRACK 07 AUDIO
TITLE "Deaf, Dumb And Blind"
INDEX 01 25:53:53
TRACK 08 AUDIO
TITLE "Spirits Of The Night"
INDEX 00 30:08:22
INDEX 01 30:08:52
TRACK 09 AUDIO
TITLE "Times Of Darkness"
INDEX 00 35:03:07
INDEX 01 35:03:16
TRACK 10 AUDIO
TITLE "The Dark Side Of The Sun"
INDEX 00 40:16:57
INDEX 01 40:16:59
=========================================================
REM GENRE Power/Speed Metal
REM DATE 2016
REM DISCID 44066406
REM COMMENT 10 Jun, 2016 Europe
PERFORMER "Rage"
TITLE "The Devil Strikes Again (Bonus CD)"
FILE "Rage - The Devil Strikes Again (Bonus CD).flac" WAVE
TRACK 01 AUDIO
TITLE "Bring Me Down"
INDEX 01 00:00:00
TRACK 02 AUDIO
TITLE "Requiem"
INDEX 00 05:05:17
INDEX 01 05:05:35
TRACK 03 AUDIO
TITLE "Into The Fire"
INDEX 00 09:00:28
INDEX 01 09:00:67
TRACK 04 AUDIO
TITLE "Slave To The Grind"
INDEX 00 14:28:00
INDEX 01 14:28:12
TRACK 05 AUDIO
TITLE "Bravado"
INDEX 00 17:56:08
INDEX 01 17:56:09
TRACK 06 AUDIO
TITLE "Open Fire"
INDEX 00 22:33:66
INDEX 01 22:33:68
==============================================
REM GENRE Power/Speed Metal
REM DATE 2016
REM DISCID 690CA509
REM COMMENT 10 Jun, 2016 Europe
PERFORMER "Rage"
TITLE "Live In Warsaw 2016"
FILE "Rage - Live In Warsaw 2016.flac" WAVE
TRACK 01 AUDIO
TITLE "Black In Mind"
INDEX 01 00:00:00
TRACK 02 AUDIO
TITLE "Sent By The Devil"
INDEX 01 04:58:34
TRACK 03 AUDIO
TITLE "End Of All Days"
INDEX 01 11:08:39
TRACK 04 AUDIO
TITLE "Back In Time"
INDEX 01 16:11:64
TRACK 05 AUDIO
TITLE "Down"
INDEX 01 21:40:04
TRACK 06 AUDIO
TITLE "My Way"
INDEX 01 27:27:28
TRACK 07 AUDIO
TITLE "Until I Die"
INDEX 01 32:45:04
TRACK 08 AUDIO
TITLE "Don't Fear The Winter"
INDEX 01 38:28:53
TRACK 09 AUDIO
TITLE "Higher Than The Sky"
INDEX 01 43:23:18
-
-
--Работаю не за Спасибо , а за ИДЕЮ.--
Download / Скачать

Хотите скачать бесплатно? Зарегистрируйтесь на сайте (ссылка на регистрацию). Pirat.ca - самый быстрый торрент трекер в рунете!

Как скачивать  ·   Что такое торрент  ·   Рейтинг и ограничения

BilG

Корсар

Пост 31-Мар-2017 16:26 (спустя 8 месяцев 29 дней)

[Q] 

Благодарю за труд!

Мне понравилось

_________________
[Профиль]  [ЛС] 
Показать сообщения:    
Ответить на тему

Текущее время: Сегодня 19:00

Часовой пояс: GMT + 4



Вы не можете начинать темы
Вы не можете отвечать на сообщения
Вы не можете редактировать свои сообщения
Вы не можете удалять свои сообщения
Вы не можете голосовать в опросах
Вы не можете прикреплять файлы к сообщениям
Вы не можете скачивать файлы

▼ Вниз