Уважаемый Гость!
Вы можете поддержать проект и зарегистрироваться у наших партнеров - онлайн-стратегия MyLands. При регистрации в игре Вы получите код, который сможете активировать после регистрации на pirat.ca и получить 1000 дублонов.

Ваш код:
1b8effbb2d91248629d5897a85d0d1c4a4c433f0
 
     

(Power Metal A Cappella) Van Canto - Voices Of Fire-(Limited Edition) - 2016 [FLAC, image+.cue, lossless]

Ответить на тему
 
Автор
Сообщение

Пост 13-Июл-2016 22:29

[Q] 

Дядя Вова

Гроза морей

-Van Canto - Voices Of Fire-(Limited Edition)-- Год издания: 2016
Страна: Bingen am Rhein, Rhineland-Palatinate, Germany
Жанр: Power Metal A Cappella
Продолжительность: 00:55:24-Лейбл издания: E-A-R MusicEdel Germany GmbH
Тип альбома: Master
Страна-выпуска диска: Germany
Номер по каталогу: 0210828EMU - LC 36979
Источник (релизер): RMT-Формат: FLAC
Битрейт аудио: lossless
Тип рипа: image+.cue
Наличие сканов в содержимом раздачи: да-
01. Prologue (02:56)
02. Clashings On Armour Plates (04:06)
03. Dragonwake (05:12)
04. Time And Time Again (04:22)
05. All My Life (04:12)
06. Battleday's Dawn (03:28)
07. Firevows (Join The Journey) (03:53)
08. The Oracle (04:53)
09. The Betrayal (04:08)
10. We Are One (05:28)
11. The Bardcall (04:46)
12. To Catharsis (04:53)
13. Epilogue (00:50)
14. Hymn (Bonus Track) (02:16)
-
Exact Audio Copy V1.1 from 23. June 2015
EAC extraction logfile from 15. March 2016, 12:18
Van Canto / Voices Of Fire (Limited Edition)
Used drive : HP DVD Writer 1170d Adapter: 1 ID: 1
Read mode : Secure
Utilize accurate stream : Yes
Defeat audio cache : Yes
Make use of C2 pointers : No
Read offset correction : 6
Overread into Lead-In and Lead-Out : No
Fill up missing offset samples with silence : Yes
Delete leading and trailing silent blocks : No
Null samples used in CRC calculations : Yes
Used interface : Native Win32 interface for Win NT & 2000
Used output format : User Defined Encoder
Selected bitrate : 1024 kBit/s
Quality : Low
Add ID3 tag : No
Command line compressor : C:\Program Files (x86)\Exact Audio Copy\FLAC\FLAC.EXE
Additional command line options : -V -8 -T "Date=%year%" -T "Genre=%genre%" -T"COMMENT=Ripped by Ungern666" -8 -V %source%
TOC of the extracted CD
Track | Start | Length | Start sector | End sector
---------------------------------------------------------
1 | 0:00.00 | 2:56.16 | 0 | 13215
2 | 2:56.16 | 4:06.32 | 13216 | 31697
3 | 7:02.48 | 5:12.19 | 31698 | 55116
4 | 12:14.67 | 4:22.30 | 55117 | 74796
5 | 16:37.22 | 4:12.08 | 74797 | 93704
6 | 20:49.30 | 3:27.47 | 93705 | 109276
7 | 24:17.02 | 3:52.67 | 109277 | 126743
8 | 28:09.69 | 4:53.18 | 126744 | 148736
9 | 33:03.12 | 4:07.63 | 148737 | 167324
10 | 37:11.00 | 5:27.38 | 167325 | 191887
11 | 42:38.38 | 4:45.58 | 191888 | 213320
12 | 47:24.21 | 4:53.32 | 213321 | 235327
13 | 52:17.53 | 0:50.30 | 235328 | 239107
14 | 53:08.08 | 2:16.13 | 239108 | 249320
Range status and errors
Selected range
Filename C:\EAC\Ungern666\Van Canto - Voices Of Fire (Limited Edition).wav
Peak level 99.3 %
Extraction speed 7.2 X
Range quality 100.0 %
Test CRC BA419FB9
Copy CRC BA419FB9
Copy OK
No errors occurred
AccurateRip summary
Track 1 not present in database
Track 2 not present in database
Track 3 not present in database
Track 4 not present in database
Track 5 not present in database
Track 6 not present in database
Track 7 not present in database
Track 8 not present in database
Track 9 not present in database
Track 10 not present in database
Track 11 not present in database
Track 12 not present in database
Track 13 not present in database
Track 14 not present in database
None of the tracks are present in the AccurateRip database
End of status report
---- CUETools DB Plugin V2.1.6
[CTDB TOCID: LIunHTbz5BSUfTmHVvdudZbNTZs-] found
Submit result: LIunHTbz5BSUfTmHVvdudZbNTZs- has been confirmed
Track | CTDB Status
1 | (10/10) Accurately ripped
2 | (10/10) Accurately ripped
3 | (10/10) Accurately ripped
4 | (10/10) Accurately ripped
5 | (10/10) Accurately ripped
6 | (10/10) Accurately ripped
7 | (10/10) Accurately ripped
8 | (10/10) Accurately ripped
9 | (10/10) Accurately ripped
10 | (10/10) Accurately ripped
11 | (10/10) Accurately ripped
12 | (10/10) Accurately ripped
13 | (10/10) Accurately ripped
14 | (10/10) Accurately ripped
==== Log checksum 3F781BDF9C2752B5967AB8410AAD5CF4A04A4EC914A6ABDC3EB1FD0FBE8B98DA ====
-
REM DATE 2016
REM DISCID D30CFC0E
REM COMMENT "ExactAudioCopy v1.1"
PERFORMER "Van Canto"
TITLE "Voices Of Fire (Limited Edition)"
FILE "Van Canto - Voices Of Fire (Limited Edition).flac" WAVE
TRACK 01 AUDIO
TITLE "Prologue"
PERFORMER "Van Canto"
INDEX 01 00:00:00
TRACK 02 AUDIO
TITLE "Clashings On Armour Plates "
PERFORMER "Van Canto"
INDEX 01 02:56:16
TRACK 03 AUDIO
TITLE "Dragonwake"
PERFORMER "Van Canto"
INDEX 00 06:33:41
INDEX 01 07:02:48
TRACK 04 AUDIO
TITLE "Time And Time Again "
PERFORMER "Van Canto"
INDEX 00 11:49:31
INDEX 01 12:14:67
TRACK 05 AUDIO
TITLE "All My Life"
PERFORMER "Van Canto"
INDEX 00 16:07:61
INDEX 01 16:37:22
TRACK 06 AUDIO
TITLE "Battleday's Dawn"
PERFORMER "Van Canto"
INDEX 00 20:23:65
INDEX 01 20:49:30
TRACK 07 AUDIO
TITLE "Firevows (Join The Journey)"
PERFORMER "Van Canto"
INDEX 00 23:56:32
INDEX 01 24:17:02
TRACK 08 AUDIO
TITLE "The Oracle"
PERFORMER "Van Canto"
INDEX 00 27:44:32
INDEX 01 28:09:69
TRACK 09 AUDIO
TITLE "The Betrayal"
PERFORMER "Van Canto"
INDEX 00 32:40:24
INDEX 01 33:03:12
TRACK 10 AUDIO
TITLE "We Are One"
PERFORMER "Van Canto"
INDEX 00 36:42:51
INDEX 01 37:11:00
TRACK 11 AUDIO
TITLE "The Bardcall"
PERFORMER "Van Canto"
INDEX 00 41:52:38
INDEX 01 42:38:38
TRACK 12 AUDIO
TITLE "To Catharsis"
PERFORMER "Van Canto"
INDEX 00 46:57:06
INDEX 01 47:24:21
TRACK 13 AUDIO
TITLE "Epilogue"
PERFORMER "Van Canto"
INDEX 01 52:17:53
TRACK 14 AUDIO
TITLE "Hymn (Bonus Track)"
PERFORMER "Van Canto"
INDEX 00 53:03:48
INDEX 01 53:08:08
-
-
--Работаю не за Спасибо , а за ИДЕЮ.--
Download / Скачать

Хотите скачать бесплатно? Зарегистрируйтесь на сайте (ссылка на регистрацию). Pirat.ca - самый быстрый торрент трекер в рунете!

Как скачивать  ·   Что такое торрент  ·   Рейтинг и ограничения

BilG

Корсар

Пост 31-Мар-2017 16:03 (спустя 8 месяцев 17 дней)

[Q] 

Из всех трекеров для нас важнейшим является Pirat.ca

_________________
[Профиль]  [ЛС] 
Показать сообщения:    
Ответить на тему

Текущее время: Сегодня 03:03

Часовой пояс: GMT + 4



Вы не можете начинать темы
Вы не можете отвечать на сообщения
Вы не можете редактировать свои сообщения
Вы не можете удалять свои сообщения
Вы не можете голосовать в опросах
Вы не можете прикреплять файлы к сообщениям
Вы не можете скачивать файлы

▼ Вниз