Уважаемый Гость!
Вы можете поддержать проект и зарегистрироваться у наших партнеров - онлайн-стратегия MyLands. При регистрации в игре Вы получите код, который сможете активировать после регистрации на pirat.ca и получить 1000 дублонов.

Ваш код:
b35b3ec45a7bd3f86315766471edc285be832af4
 
     

(Death Metal) Angerseed - The Proclamation - 2016 [FLAC, image+.cue, lossless]

Ответить на тему
 
Автор
Сообщение

Пост 23-Июл-2016 00:54

[Q] 

Дядя Вова

Гроза морей

-Angerseed - The Proclamation-- Год издания: 2016
Страна: Hungary
Жанр: Death Metal
Продолжительность: 01:16:40-Лейбл издания: Nail Records
Тип альбома: Master + EP
Страна-выпуска диска: January 25, 2016 Hungary
Номер по каталогу: [NAILCD251]
Источник (релизер): RMT-Формат: FLAC
Битрейт аудио: lossless
Тип рипа: image+.cue
Наличие сканов в содержимом раздачи: да-
01. The Rise of Meaning 07:48
02. Unjustified Presence 04:50
03. Society Slaves 05:32
04. Nightmare Is Called Reality 07:14
05. The Ultimate Burden 05:29
06. Victims of Appearance 05:23
07. The Proclamation 03:58
08. Age of Blackening 09:41
Dawn of a New Kingdom EP (2012)
09. Over the Darkest Season 05:03
10. Labyrinths of This Time 05:43
11. Dawn of a New Kingdom 04:21
12. A World Closed Wide 05:40
13. Marching Into Apocalypse 05:53
Exact Audio Copy V1.0 beta 3 from 29. August 2011
EAC extraction logfile from 15. July 2016, 15:04
Angerseed / The Proclamation
Used drive : ASUS SDRW-08D2S-U Adapter: 0 ID: 0
Read mode : Secure
Utilize accurate stream : Yes
Defeat audio cache : Yes
Make use of C2 pointers : No
Read offset correction : 6
Overread into Lead-In and Lead-Out : No
Fill up missing offset samples with silence : Yes
Delete leading and trailing silent blocks : No
Null samples used in CRC calculations : Yes
Used interface : Native Win32 interface for Win NT & 2000
Used output format : User Defined Encoder
Selected bitrate : 896 kBit/s
Quality : High
Add ID3 tag : No
Command line compressor : C:\Program Files (x86)\FLAC\flac.exe
Additional command line options : -6 -V %source%
TOC of the extracted CD
Track | Start | Length | Start sector | End sector
---------------------------------------------------------
1 | 0:00.00 | 7:48.27 | 0 | 35126
2 | 7:48.27 | 4:50.12 | 35127 | 56888
3 | 12:38.39 | 5:32.12 | 56889 | 81800
4 | 18:10.51 | 7:14.20 | 81801 | 114370
5 | 25:24.71 | 5:29.04 | 114371 | 139049
6 | 30:54.00 | 5:23.53 | 139050 | 163327
7 | 36:17.53 | 3:58.71 | 163328 | 181248
8 | 40:16.49 | 9:41.28 | 181249 | 224851
9 | 49:58.02 | 5:03.11 | 224852 | 247587
10 | 55:01.13 | 5:43.25 | 247588 | 273337
11 | 60:44.38 | 4:21.27 | 273338 | 292939
12 | 65:05.65 | 5:40.29 | 292940 | 318468
13 | 70:46.19 | 5:53.27 | 318469 | 344970
Range status and errors
Selected range
Filename E:\Lossless\RETEK\Angerseed - The Proclamation.wav
Peak level 100.0 %
Extraction speed 1.9 X
Range quality 100.0 %
Test CRC 4E4CCE5E
Copy CRC 4E4CCE5E
Copy OK
No errors occurred
AccurateRip summary
Track 1 not present in database
Track 2 not present in database
Track 3 not present in database
Track 4 not present in database
Track 5 not present in database
Track 6 not present in database
Track 7 not present in database
Track 8 not present in database
Track 9 not present in database
Track 10 not present in database
Track 11 not present in database
Track 12 not present in database
Track 13 not present in database
None of the tracks are present in the AccurateRip database
End of status report
-
REM GENRE Death Metal
REM DATE 2016
REM DISCID AE11F70D
REM COMMENT January 25, 2016 Hungary
PERFORMER "Angerseed"
TITLE "The Proclamation"
FILE "Angerseed - The Proclamation.flac" WAVE
TRACK 01 AUDIO
TITLE "The Rise of Meaning"
INDEX 01 00:00:00
TRACK 02 AUDIO
TITLE "Unjustified Presence"
INDEX 01 07:48:27
TRACK 03 AUDIO
TITLE "Society Slaves"
INDEX 00 12:35:39
INDEX 01 12:38:39
TRACK 04 AUDIO
TITLE "Nightmare Is Called Reality"
INDEX 00 18:08:51
INDEX 01 18:10:51
TRACK 05 AUDIO
TITLE "The Ultimate Burden"
INDEX 00 25:22:71
INDEX 01 25:24:71
TRACK 06 AUDIO
TITLE "Victims of Appearance"
INDEX 01 30:54:00
TRACK 07 AUDIO
TITLE "The Proclamation"
INDEX 00 36:14:53
INDEX 01 36:17:53
TRACK 08 AUDIO
TITLE "Age of Blackening"
INDEX 00 40:14:49
INDEX 01 40:16:49
TRACK 09 AUDIO
TITLE "Over the Darkest Season [Bonus]"
INDEX 01 49:58:02
TRACK 10 AUDIO
TITLE "Labyrinths of This Time [Bonus]"
INDEX 00 54:59:13
INDEX 01 55:01:13
TRACK 11 AUDIO
TITLE "Dawn of a New Kingdom[Bonus]"
INDEX 00 60:42:38
INDEX 01 60:44:38
TRACK 12 AUDIO
TITLE "A World Closed Wide [Bonus]"
INDEX 00 65:03:65
INDEX 01 65:05:65
TRACK 13 AUDIO
TITLE "Marching Into Apocalypse [Bonus]"
INDEX 00 70:44:19
INDEX 01 70:46:19
-
-
--Работаю не за Спасибо , а за ИДЕЮ.--
Download / Скачать

Хотите скачать бесплатно? Зарегистрируйтесь на сайте (ссылка на регистрацию). Pirat.ca - самый быстрый торрент трекер в рунете!

Как скачивать  ·   Что такое торрент  ·   Рейтинг и ограничения

BilG

Корсар

Пост 31-Мар-2017 15:59 (спустя 8 месяцев 8 дней)

[Q] 

Спасибо!!!!

_________________
[Профиль]  [ЛС] 
Показать сообщения:    
Ответить на тему

Текущее время: Сегодня 18:58

Часовой пояс: GMT + 4



Вы не можете начинать темы
Вы не можете отвечать на сообщения
Вы не можете редактировать свои сообщения
Вы не можете удалять свои сообщения
Вы не можете голосовать в опросах
Вы не можете прикреплять файлы к сообщениям
Вы не можете скачивать файлы

▼ Вниз