Уважаемый Гость!
Вы можете поддержать проект и зарегистрироваться у наших партнеров - онлайн-стратегия MyLands. При регистрации в игре Вы получите код, который сможете активировать после регистрации на pirat.ca и получить 1000 дублонов.

Ваш код:
b35b3ec45a7bd3f86315766471edc285be832af4
 
     

(Death Metal) Centinex - Doomsday Rituals - 2016 [FLAC, image+.cue, lossless]

Ответить на тему
 
Автор
Сообщение

Пост 31-Июл-2016 21:52

[Q] 

Дядя Вова

Гроза морей

-Centinex - Doomsday Rituals-- Год издания: 2016
Страна: Sweden
Жанр: Death Metal
Продолжительность: 00:32:23-Лейбл издания: Agonia Records
Тип альбома: Master
Страна-выпуска диска: 08 Jul, 2016 Poland
Номер по каталогу: [ARCD154]
Формат: FLAC
Битрейт аудио: lossless
Тип рипа: image+.cue
Наличие сканов в содержимом раздачи: да-
01. Flesh Passion
02. From Intact to Broken
03. Dismemberment Supreme
04. Generation of Flies
05. The Shameful Few
06. Doomsday
07. Exist to Feed
08. Death Decay Murder
09. Sentenced to Suffer
10. Faceless
-
Exact Audio Copy V1.1 from 23. June 2015
EAC extraction logfile from 22. July 2016, 21:00
Centinex / Doomsday Rituals
Used drive : PLEXTOR DVDR PX-891SA Adapter: 1 ID: 0
Read mode : Secure
Utilize accurate stream : Yes
Defeat audio cache : Yes
Make use of C2 pointers : No
Read offset correction : 6
Overread into Lead-In and Lead-Out : No
Fill up missing offset samples with silence : Yes
Delete leading and trailing silent blocks : No
Null samples used in CRC calculations : Yes
Used interface : Native Win32 interface for Win NT & 2000
Used output format : User Defined Encoder
Selected bitrate : 896 kBit/s
Quality : High
Add ID3 tag : No
Command line compressor : C:\Program Files (x86)\Exact Audio Copy\Flac\flac.exe
Additional command line options : -6 -V %source%
TOC of the extracted CD
Track | Start | Length | Start sector | End sector
---------------------------------------------------------
1 | 0:00.00 | 3:15.73 | 0 | 14697
2 | 3:15.73 | 2:36.35 | 14698 | 26432
3 | 5:52.33 | 3:21.34 | 26433 | 41541
4 | 9:13.67 | 3:48.57 | 41542 | 58698
5 | 13:02.49 | 3:38.63 | 58699 | 75111
6 | 16:41.37 | 2:09.42 | 75112 | 84828
7 | 18:51.04 | 3:17.53 | 84829 | 99656
8 | 22:08.57 | 3:45.65 | 99657 | 116596
9 | 25:54.47 | 2:46.17 | 116597 | 129063
10 | 28:40.64 | 3:42.23 | 129064 | 145736
Range status and errors
Selected range
Filename D:\MeTaLMaDNeSS.TeaM\Centinex (SWE) - Doomsday Rituals (Digipak)\Centinex - Doomsday Rituals.wav
Peak level 97.7 %
Extraction speed 3.0 X
Range quality 100.0 %
Test CRC E016C361
Copy CRC E016C361
Copy OK
No errors occurred
AccurateRip summary
Track 1 not present in database
Track 2 not present in database
Track 3 not present in database
Track 4 not present in database
Track 5 not present in database
Track 6 not present in database
Track 7 not present in database
Track 8 not present in database
Track 9 not present in database
Track 10 not present in database
None of the tracks are present in the AccurateRip database
End of status report
---- CUETools DB Plugin V2.1.6
[CTDB TOCID: FLztkdBGO0p7AmegH3HcloU9A6g-] disk not present in database
Submit result: FLztkdBGO0p7AmegH3HcloU9A6g- has been uploaded
==== Log checksum 0076FCDFD312C0A823D762C5E46912EF8BCE402C2A792D66ED8EE729330CF51A ====
-
REM GENRE Death Metal
REM DATE 2016
REM DISCID 7107970A
REM COMMENT 08 Jul, 2016 Poland
PERFORMER "Centinex"
TITLE "Doomsday Rituals"
FILE "Centinex - Doomsday Rituals.flac" WAVE
TRACK 01 AUDIO
TITLE "Flesh Passion"
FLAGS DCP
INDEX 01 00:00:00
TRACK 02 AUDIO
TITLE "From Intact to Broken"
FLAGS DCP
INDEX 01 03:15:73
TRACK 03 AUDIO
TITLE "Dismemberment Supreme"
FLAGS DCP
INDEX 00 05:51:71
INDEX 01 05:52:33
TRACK 04 AUDIO
TITLE "Generation of Flies"
FLAGS DCP
INDEX 00 09:13:42
INDEX 01 09:13:67
TRACK 05 AUDIO
TITLE "The Shameful Few"
FLAGS DCP
INDEX 00 13:00:50
INDEX 01 13:02:49
TRACK 06 AUDIO
TITLE "Doomsday"
FLAGS DCP
INDEX 00 16:41:35
INDEX 01 16:41:37
TRACK 07 AUDIO
TITLE "Exist to Feed"
FLAGS DCP
INDEX 01 18:51:04
TRACK 08 AUDIO
TITLE "Death Decay Murder"
FLAGS DCP
INDEX 00 22:07:29
INDEX 01 22:08:57
TRACK 09 AUDIO
TITLE "Sentenced to Suffer"
FLAGS DCP
INDEX 00 25:53:53
INDEX 01 25:54:47
TRACK 10 AUDIO
TITLE "Faceless"
FLAGS DCP
INDEX 00 28:38:54
INDEX 01 28:40:64
-
-
--Работаю не за Спасибо , а за ИДЕЮ.--
Download / Скачать

Хотите скачать бесплатно? Зарегистрируйтесь на сайте (ссылка на регистрацию). Pirat.ca - самый быстрый торрент трекер в рунете!

Как скачивать  ·   Что такое торрент  ·   Рейтинг и ограничения

Показать сообщения:    
Ответить на тему

Текущее время: Сегодня 19:00

Часовой пояс: GMT + 4



Вы не можете начинать темы
Вы не можете отвечать на сообщения
Вы не можете редактировать свои сообщения
Вы не можете удалять свои сообщения
Вы не можете голосовать в опросах
Вы не можете прикреплять файлы к сообщениям
Вы не можете скачивать файлы

▼ Вниз