Уважаемый Гость!
Вы можете поддержать проект и зарегистрироваться у наших партнеров - онлайн-стратегия MyLands. При регистрации в игре Вы получите код, который сможете активировать после регистрации на pirat.ca и получить 1000 дублонов.

Ваш код:
d49a3625bbdee1b82b14274f97c375f8b2b2ee4c
 
     

(Melodic Death Metal) Soilwork - Death Resonance - 2016 [FLAC, image+.cue, lossless]

Ответить на тему
 
Автор
Сообщение

Пост 17-Авг-2016 23:43

[Q] 

Дядя Вова

Гроза морей

- Soilwork - Death Resonance-- Год издания: 2016
Страна: Helsingborg, Sweden
Жанр: Melodic Death Metal
Продолжительность: 01:00:39-Лейбл издания: Nuclear Blast Records
Тип альбома: Compilation
Страна-выпуска диска: August 19th, 2016 Germany
Номер по каталогу: [27361 37700]
Формат: FLAC
Битрейт аудио: lossless
Тип рипа: image+.cue
Наличие сканов в содержимом раздачи: да-
01. Helsinki
02. Death Resonance
03. The End Begins Below the Surface
04. My Nerves, Your Everyday Tool
05. These Absent Eyes
06. Resisting the Current
07. When Sound Collides
08. Forever Lost in Vain
09. Sweet Demise
10. Sadistic Lullabye
11. Overclocked
12. Martyr
13. Sovereign
14. Wherever Thorns May Grow
15. Killed by Ignition
-
Exact Audio Copy V1.1 from 23. June 2015
EAC extraction logfile from 15. August 2016, 18:50
Soilwork / Death Resonance
Used drive : ATAPI iHAS122 W Adapter: 2 ID: 0
Read mode : Secure
Utilize accurate stream : Yes
Defeat audio cache : Yes
Make use of C2 pointers : No
Read offset correction : 48
Overread into Lead-In and Lead-Out : No
Fill up missing offset samples with silence : Yes
Delete leading and trailing silent blocks : No
Null samples used in CRC calculations : Yes
Used interface : Installed external ASPI interface
Used output format : User Defined Encoder
Selected bitrate : 1024 kBit/s
Quality : High
Add ID3 tag : No
Command line compressor : C:\Program Files\FLAC\flac.exe
Additional command line options : -V -8 -T "Date=%year%" -T "Genre=%genre%" -T"COMMENT=Ripped by Ilijan" -8 -V %source%
TOC of the extracted CD
Track | Start | Length | Start sector | End sector
---------------------------------------------------------
1 | 0:00.00 | 4:01.32 | 0 | 18106
2 | 4:01.32 | 4:18.21 | 18107 | 37477
3 | 8:19.53 | 3:12.54 | 37478 | 51931
4 | 11:32.32 | 4:17.52 | 51932 | 71258
5 | 15:50.09 | 3:38.58 | 71259 | 87666
6 | 19:28.67 | 4:28.24 | 87667 | 107790
7 | 23:57.16 | 4:32.12 | 107791 | 128202
8 | 28:29.28 | 4:39.27 | 128203 | 149154
9 | 33:08.55 | 4:00.12 | 149155 | 167166
10 | 37:08.67 | 2:56.40 | 167167 | 180406
11 | 40:05.32 | 3:40.18 | 180407 | 196924
12 | 43:45.50 | 3:59.04 | 196925 | 214853
13 | 47:44.54 | 4:24.21 | 214854 | 234674
14 | 52:09.00 | 4:09.00 | 234675 | 253349
15 | 56:18.00 | 4:21.51 | 253350 | 272975
Range status and errors
Selected range
Filename D:\ilко\Soilwork - Death Resonance.wav
Peak level 100.0 %
Extraction speed 3.9 X
Range quality 99.9 %
Test CRC 50F1890E
Copy CRC 50F1890E
Copy OK
No errors occurred
AccurateRip summary
Track 1 not present in database
Track 2 not present in database
Track 3 not present in database
Track 4 not present in database
Track 5 not present in database
Track 6 not present in database
Track 7 not present in database
Track 8 not present in database
Track 9 not present in database
Track 10 not present in database
Track 11 not present in database
Track 12 not present in database
Track 13 not present in database
Track 14 not present in database
Track 15 not present in database
None of the tracks are present in the AccurateRip database
End of status report
---- CUETools DB Plugin V2.1.6
[CTDB TOCID: s30lFS_F4UHvJLUtZXPWmXsCljs-] disk not present in database
Submit result: s30lFS_F4UHvJLUtZXPWmXsCljs- has been uploaded
==== Log checksum 4ECA3757D34C914A6C08446D0E0A973570B4CDAE27A8376807AE504E62579B49 ====
-
REM GENRE Melodic Death Metal
REM DATE 2016
REM DISCID BC0E370F
REM COMMENT August 19th, 2016
PERFORMER "Soilwork"
TITLE "Death Resonance"
FILE "Soilwork - Death Resonance.flac" WAVE
TRACK 01 AUDIO
TITLE "Helsinki (New Song)"
INDEX 01 00:00:00
TRACK 02 AUDIO
TITLE "Death Resonance (New Song) "
INDEX 01 04:01:32
TRACK 03 AUDIO
TITLE "The End Begins Below the Surface (Japanese Bonus Track - The Ride Majestic)"
INDEX 01 08:19:53
TRACK 04 AUDIO
TITLE "My Nerves, Your Everyday Tool (Beyond the Infinite EP)"
INDEX 01 11:32:32
TRACK 05 AUDIO
TITLE "These Absent Eyes (Beyond the Infinite EP)"
INDEX 01 15:50:09
TRACK 06 AUDIO
TITLE "Resisting the Current (Beyond the Infinite EP)"
INDEX 01 19:28:67
TRACK 07 AUDIO
TITLE "When Sound Collides (Beyond the Infinite EP)"
INDEX 01 23:57:16
TRACK 08 AUDIO
TITLE "Forever Lost in Vain (Beyond the Infinite EP)"
INDEX 01 28:29:28
TRACK 09 AUDIO
TITLE "Sweet Demise (Japanese Bonus Track - The Panic Broadcast)"
INDEX 01 33:08:55
TRACK 10 AUDIO
TITLE "Sadistic Lullabye (Japanese Bonus Track - The Panic Broadcast)"
INDEX 01 37:08:67
TRACK 11 AUDIO
TITLE "Overclocked (Japanese Bonus Track - Sworn to a Great Divide)"
INDEX 01 40:05:32
TRACK 12 AUDIO
TITLE "Martyr (Japanese Bonus Track - Sworn to a Great Divide)"
INDEX 01 43:45:50
TRACK 13 AUDIO
TITLE "Sovereign (Japanese Bonus Track - Sworn to a Great Divide)"
INDEX 01 47:44:54
TRACK 14 AUDIO
TITLE "Wherever Thorns May Grow (Japanese Bonus Track - Stabbing the Drama)"
INDEX 01 52:09:00
TRACK 15 AUDIO
TITLE "Killed by Ignition (Japanese Bonus Track - Stabbing the Drama)"
INDEX 01 56:18:00
-
-
--Работаю не за Спасибо , а за ИДЕЮ.--
Download / Скачать

Хотите скачать бесплатно? Зарегистрируйтесь на сайте (ссылка на регистрацию). Pirat.ca - самый быстрый торрент трекер в рунете!

Как скачивать  ·   Что такое торрент  ·   Рейтинг и ограничения

BilG

Корсар

Пост 31-Мар-2017 13:41 (спустя 7 месяцев 13 дней)

[Q] 

Сердечно благодарю !

_________________
[Профиль]  [ЛС] 
Показать сообщения:    
Ответить на тему

Текущее время: Сегодня 19:37

Часовой пояс: GMT + 4



Вы не можете начинать темы
Вы не можете отвечать на сообщения
Вы не можете редактировать свои сообщения
Вы не можете удалять свои сообщения
Вы не можете голосовать в опросах
Вы не можете прикреплять файлы к сообщениям
Вы не можете скачивать файлы

▼ Вниз