Уважаемый Гость!
Вы можете поддержать проект и зарегистрироваться у наших партнеров - онлайн-стратегия MyLands. При регистрации в игре Вы получите код, который сможете активировать после регистрации на pirat.ca и получить 1000 дублонов.

Ваш код:
1b8effbb2d91248629d5897a85d0d1c4a4c433f0
 
     

(Atmospheric Gothic Metal) Heavenwood - The Tarot of the Bohemians - Part 1- 2016 [FLAC, image+.cue, lossless]

Ответить на тему
 
Автор
Сообщение

Пост 23-Авг-2016 05:11

[Q] 

Дядя Вова

Гроза морей

-Heavenwood - The Tarot of the Bohemians-- Год издания: 2016
Страна: Vila Nova de Gaia, Oporto, Portugal
Жанр: Atmospheric Gothic Metal
Продолжительность: 01:03:24-Лейбл издания: Raising Legends Records
Тип альбома: Master
Страна-выпуска диска: February 22nd, 2016 Portugal
Номер по каталогу: [RL046]
Формат: FLAC
Битрейт аудио: lossless
Тип рипа: image+.cue
Наличие сканов в содержимом раздачи: да-
01. The Juggler 06:44
02. The High Priestess 06:05
03. The Empress 04:53
04. The Emperor 05:22
05. The Pope 04:17
06. The Lovers 05:25
07. The Chariot 05:05
08. Justice 04:04
09. The Hermit 05:21
10. The Wheel of Fortune 04:59
11. Strength 05:32
12. The Hanged Man 05:07
-
Exact Audio Copy V1.0 beta 3 from 29. August 2011
EAC extraction logfile from 3. August 2016, 10:52
Heavenwood / The Tarot of the Bohemians
Used drive : ASUS SDRW-08D2S-U Adapter: 0 ID: 0
Read mode : Secure
Utilize accurate stream : Yes
Defeat audio cache : Yes
Make use of C2 pointers : No
Read offset correction : 6
Overread into Lead-In and Lead-Out : No
Fill up missing offset samples with silence : Yes
Delete leading and trailing silent blocks : No
Null samples used in CRC calculations : Yes
Used interface : Native Win32 interface for Win NT & 2000
Used output format : User Defined Encoder
Selected bitrate : 896 kBit/s
Quality : High
Add ID3 tag : No
Command line compressor : C:\Program Files (x86)\FLAC\flac.exe
Additional command line options : -6 -V %source%
TOC of the extracted CD
Track | Start | Length | Start sector | End sector
---------------------------------------------------------
1 | 0:00.00 | 6:46.72 | 0 | 30521
2 | 6:46.72 | 6:07.20 | 30522 | 58066
3 | 12:54.17 | 5:24.64 | 58067 | 82430
4 | 18:19.06 | 4:19.03 | 82431 | 101858
5 | 22:38.09 | 5:27.08 | 101859 | 126391
6 | 28:05.17 | 4:55.57 | 126392 | 148573
7 | 33:00.74 | 5:07.52 | 148574 | 171650
8 | 38:08.51 | 4:06.73 | 171651 | 190173
9 | 42:15.49 | 5:23.57 | 190174 | 214455
10 | 47:39.31 | 5:01.63 | 214456 | 237093
11 | 52:41.19 | 5:34.28 | 237094 | 262171
12 | 58:15.47 | 5:07.74 | 262172 | 285270
Range status and errors
Selected range
Filename E:\Lossless\RETEK\Heavenwood - The Tarot of the Bohemians.wav
Peak level 98.3 %
Extraction speed 4.1 X
Range quality 100.0 %
Test CRC 3F09E8DA
Copy CRC 3F09E8DA
Copy OK
No errors occurred
AccurateRip summary
Track 1 accurately ripped (confidence 1) [944CA2BF] (AR v2)
Track 2 accurately ripped (confidence 1) [78426C5F] (AR v2)
Track 3 accurately ripped (confidence 1) [2C8DABC4] (AR v2)
Track 4 accurately ripped (confidence 1) [0711B71C] (AR v2)
Track 5 accurately ripped (confidence 1) [DC645300] (AR v2)
Track 6 accurately ripped (confidence 1) [A5AF8D64] (AR v2)
Track 7 accurately ripped (confidence 1) [FC9C9300] (AR v2)
Track 8 accurately ripped (confidence 1) [634DFD93] (AR v2)
Track 9 accurately ripped (confidence 1) [5D1582B9] (AR v2)
Track 10 accurately ripped (confidence 1) [22C86B01] (AR v2)
Track 11 accurately ripped (confidence 1) [11766483] (AR v2)
Track 12 accurately ripped (confidence 1) [D8F6D27F] (AR v2)
All tracks accurately ripped
End of status report
-
REM GENRE Doom/Gothic Metal
REM DATE 2016
REM DISCID AC0EDB0C
REM COMMENT February 22nd, 2016 Portugal
PERFORMER "Heavenwood"
TITLE "The Tarot of the Bohemians: Part 1"
FILE "Heavenwood - The Tarot of the Bohemians.flac" WAVE
TRACK 01 AUDIO
TITLE "The Juggler"
INDEX 01 00:00:00
TRACK 02 AUDIO
TITLE "The High Priestess"
INDEX 00 06:44:72
INDEX 01 06:46:72
TRACK 03 AUDIO
TITLE "The Empress"
INDEX 00 12:52:17
INDEX 01 12:54:17
TRACK 04 AUDIO
TITLE "The Emperor"
INDEX 00 18:17:06
INDEX 01 18:19:06
TRACK 05 AUDIO
TITLE "The Pope"
INDEX 00 22:36:09
INDEX 01 22:38:09
TRACK 06 AUDIO
TITLE "The Lovers"
INDEX 00 28:03:17
INDEX 01 28:05:17
TRACK 07 AUDIO
TITLE "The Chariot"
INDEX 00 32:59:00
INDEX 01 33:00:74
TRACK 08 AUDIO
TITLE "Justice"
INDEX 00 38:06:52
INDEX 01 38:08:51
TRACK 09 AUDIO
TITLE "The Hermit"
INDEX 00 42:13:49
INDEX 01 42:15:49
TRACK 10 AUDIO
TITLE "The Wheel of Fortune"
INDEX 00 47:37:31
INDEX 01 47:39:31
TRACK 11 AUDIO
TITLE "Strength"
INDEX 00 52:39:19
INDEX 01 52:41:19
TRACK 12 AUDIO
TITLE "The Hanged Man"
INDEX 00 58:13:48
INDEX 01 58:15:47
-
-
--Работаю не за Спасибо , а за ИДЕЮ.--
Download / Скачать

Хотите скачать бесплатно? Зарегистрируйтесь на сайте (ссылка на регистрацию). Pirat.ca - самый быстрый торрент трекер в рунете!

Как скачивать  ·   Что такое торрент  ·   Рейтинг и ограничения

BilG

Корсар

Пост 29-Мар-2017 13:43 (спустя 7 месяцев 6 дней)

[Q] 

Благодарю за труд!
Всем качать!!!

_________________
[Профиль]  [ЛС] 
Показать сообщения:    
Ответить на тему

Текущее время: Сегодня 02:59

Часовой пояс: GMT + 4



Вы не можете начинать темы
Вы не можете отвечать на сообщения
Вы не можете редактировать свои сообщения
Вы не можете удалять свои сообщения
Вы не можете голосовать в опросах
Вы не можете прикреплять файлы к сообщениям
Вы не можете скачивать файлы

▼ Вниз