Уважаемый Гость!
Вы можете поддержать проект и зарегистрироваться у наших партнеров - онлайн-стратегия MyLands. При регистрации в игре Вы получите код, который сможете активировать после регистрации на pirat.ca и получить 1000 дублонов.

Ваш код:
bf76b4fde44c7189cfb4d32d5b204facc1d6d492
 
     

(Extreme Progressive Metal) Ihsahn - Arktis - (Limited Edition) - 2016 [FLAC, image+.cue, lossless]

Ответить на тему
 
Автор
Сообщение

Пост 03-Сен-2016 15:29

[Q] 

Дядя Вова

Гроза морей

-Ihsahn - Arktis - (Limited Edition)-- Год издания: 2016
Страна: Norway
Жанр: Extreme Progressive Metal
Продолжительность: 00:57:26-Лейбл издания: Candlelight Records
Тип альбома: Master
Страна-выпуска диска: 08 Apr 2016, UK
Номер по каталогу: CANDLE778672
Формат: FLAC
Битрейт аудио: lossless
Тип рипа: image+.cue
Наличие сканов в содержимом раздачи: да-
01. Disassembled
02. Mass Darkness
03. My Heart Is Of The North
04. South Winds
05. In The Vaults
06. Until I Too Dissolve
07. Pressure
08. Frail
09. Crooked Red Line
10. Celestial Violence
11. Til Tor Ulven (Soppelsolen) (Bonus Track)
-
Exact Audio Copy V1.2 from 12. August 2016
EAC extraction logfile from 27. August 2016, 19:09
Ihsahn / Arktis.
Used drive : PIONEER BD-RW BDR-206D Adapter: 1 ID: 0
Read mode : Secure
Utilize accurate stream : Yes
Defeat audio cache : Yes
Make use of C2 pointers : No
Read offset correction : 667
Overread into Lead-In and Lead-Out : No
Fill up missing offset samples with silence : Yes
Delete leading and trailing silent blocks : No
Null samples used in CRC calculations : Yes
Used interface : Native Win32 interface for Win NT & 2000
Used output format : User Defined Encoder
Selected bitrate : 896 kBit/s
Quality : High
Add ID3 tag : No
Command line compressor : C:\Progs\!Portable\Exact Audio Copy\Flac\flac.exe
Additional command line options : -8 -V -T "ARTIST=%artist%" -T "TITLE=%title%" -T "ALBUM=%albumtitle%" -T "DATE=%year%" -T "TRACKNUMBER=%tracknr%" -T "GENRE=%genre%" -T "PERFORMER=%albuminterpret%" -T "COMPOSER=%composer%" %haslyrics%--tag-from-file=LYRICS="%lyricsfile%"%haslyrics% -T "ALBUMARTIST=%albumartist%" -T "DISCNUMBER=%cdnumber%" -T "TOTALDISCS=%totalcds%" -T "TOTALTRACKS=%numtracks%" -T "COMMENT=%comment%" %source% -o %dest%
TOC of the extracted CD
Track | Start | Length | Start sector | End sector
---------------------------------------------------------
1 | 0:00.00 | 5:02.53 | 0 | 22702
2 | 5:02.53 | 3:52.33 | 22703 | 40135
3 | 8:55.11 | 4:43.44 | 40136 | 61404
4 | 13:38.55 | 5:34.60 | 61405 | 86514
5 | 19:13.40 | 4:09.51 | 86515 | 105240
6 | 23:23.16 | 5:24.58 | 105241 | 129598
7 | 28:47.74 | 6:04.34 | 129599 | 156932
8 | 34:52.33 | 3:39.39 | 156933 | 173396
9 | 38:31.72 | 4:16.21 | 173397 | 192617
10 | 42:48.18 | 5:24.48 | 192618 | 216965
11 | 48:12.66 | 9:13.09 | 216966 | 258449
Range status and errors
Selected range
Filename D:\Temp\Ihsahn - 2016 - Arktis\Ihsahn - 2016 - Arktis.wav
Peak level 99.3 %
Extraction speed 7.5 X
Range quality 100.0 %
Test CRC D5AB93BC
Copy CRC D5AB93BC
Copy OK
No errors occurred
AccurateRip summary
Track 1 accurately ripped (confidence 4) [5C2CC60F] (AR v2)
Track 2 accurately ripped (confidence 4) [1460F5A5] (AR v2)
Track 3 accurately ripped (confidence 4) [A72B7918] (AR v2)
Track 4 accurately ripped (confidence 4) [0912DC8B] (AR v2)
Track 5 accurately ripped (confidence 4) [A2A3A938] (AR v2)
Track 6 accurately ripped (confidence 4) [38C5BAB3] (AR v2)
Track 7 accurately ripped (confidence 4) [37AC475B] (AR v2)
Track 8 accurately ripped (confidence 4) [2BF4189D] (AR v2)
Track 9 accurately ripped (confidence 4) [FFC1B26D] (AR v2)
Track 10 accurately ripped (confidence 4) [F66FEF29] (AR v2)
Track 11 accurately ripped (confidence 4) [468E9C2B] (AR v2)
All tracks accurately ripped
End of status report
---- CUETools DB Plugin V2.1.6
[CTDB TOCID: zvINTDBljpGeXgDZY7DyGO8b4.0-] found
Submit result: zvINTDBljpGeXgDZY7DyGO8b4.0- has been confirmed
Track | CTDB Status
1 | (33/33) Accurately ripped
2 | (33/33) Accurately ripped
3 | (33/33) Accurately ripped
4 | (33/33) Accurately ripped
5 | (33/33) Accurately ripped
6 | (33/33) Accurately ripped
7 | (33/33) Accurately ripped
8 | (33/33) Accurately ripped
9 | (33/33) Accurately ripped
10 | (33/33) Accurately ripped
11 | (33/33) Accurately ripped
==== Log checksum FB9D9D2F7EDA8B2B49C6C41FC34BA1F3494F1E07E89000BAEA87DBE24C7B0CCB ====
-
REM GENRE Extreme Progressive Metal
REM DATE 2016
REM COMMENT 2016, UK, Limited Edition, Mediabook, DR6
PERFORMER "Ihsahn"
TITLE "Arktis."
FILE "Ihsahn - Arktis..flac" WAVE
TRACK 01 AUDIO
TITLE "Disassembled"
INDEX 01 00:00:00
TRACK 02 AUDIO
TITLE "Mass Darkness"
INDEX 01 05:02:53
TRACK 03 AUDIO
TITLE "My Heart Is Of The North"
INDEX 01 08:55:11
TRACK 04 AUDIO
TITLE "South Winds"
INDEX 01 13:38:55
TRACK 05 AUDIO
TITLE "In The Vaults"
INDEX 01 19:13:40
TRACK 06 AUDIO
TITLE "Until I Too Dissolve"
INDEX 01 23:23:16
TRACK 07 AUDIO
TITLE "Pressure"
INDEX 01 28:47:74
TRACK 08 AUDIO
TITLE "Frail"
INDEX 01 34:52:33
TRACK 09 AUDIO
TITLE "Crooked Red Line "
INDEX 01 38:31:72
TRACK 10 AUDIO
TITLE "Celestial Violence"
INDEX 01 42:48:18
TRACK 11 AUDIO
TITLE "Til Tor Ulven (Soppelsolen) (Bonus Track)"
INDEX 01 48:12:66
-
-
--Работаю не за Спасибо , а за ИДЕЮ.--
Download / Скачать

Хотите скачать бесплатно? Зарегистрируйтесь на сайте (ссылка на регистрацию). Pirat.ca - самый быстрый торрент трекер в рунете!

Как скачивать  ·   Что такое торрент  ·   Рейтинг и ограничения

BilG

Корсар

Пост 29-Мар-2017 11:33 (спустя 6 месяцев 25 дней)

[Q] 

Большое спасибо!

_________________
[Профиль]  [ЛС] 
Показать сообщения:    
Ответить на тему

Текущее время: Сегодня 12:36

Часовой пояс: GMT + 4



Вы не можете начинать темы
Вы не можете отвечать на сообщения
Вы не можете редактировать свои сообщения
Вы не можете удалять свои сообщения
Вы не можете голосовать в опросах
Вы не можете прикреплять файлы к сообщениям
Вы не можете скачивать файлы

▼ Вниз