Уважаемый Гость!
Вы можете поддержать проект и зарегистрироваться у наших партнеров - онлайн-стратегия MyLands. При регистрации в игре Вы получите код, который сможете активировать после регистрации на pirat.ca и получить 1000 дублонов.

Ваш код:
d49a3625bbdee1b82b14274f97c375f8b2b2ee4c
 
     

(Melodic Death Metal, Doom Metal) (EchO) - Head First Into Shadows - 2016 [FLAC, image+.cue, lossless]

Ответить на тему
 
Автор
Сообщение

Пост 04-Сен-2016 02:00

[Q] 

Дядя Вова

Гроза морей

-(EchO) - Head First Into Shadows-- Год издания: 2016
Страна: Italy
Жанр: Melodic Death Metal, Doom Metal
Продолжительность: 00:50:12-Лейбл издания: BadMoodMan Music
Тип альбома: Master
Страна-выпуска диска: 23 May, 2016 Russia
Номер по каталогу: [BMM. 077-16]
Формат: FLAC
Битрейт аудио: lossless
Тип рипа: image+.cue
Наличие сканов в содержимом раздачи: да-
01. Blood And Skin
02. A Place We Used To Call Home
03. Beneath This Lake
04. Gone
05. A New Maze
06. Order Of The Nightshade
-
Exact Audio Copy V1.1 from 23. June 2015
EAC extraction logfile from 8. June 2016, 19:09
(EchO) / Head First Into Shadows
Used drive : ASUS DRW-1612BL Adapter: 2 ID: 0
Read mode : Secure
Utilize accurate stream : Yes
Defeat audio cache : Yes
Make use of C2 pointers : No
Read offset correction : 6
Overread into Lead-In and Lead-Out : No
Fill up missing offset samples with silence : Yes
Delete leading and trailing silent blocks : No
Null samples used in CRC calculations : Yes
Used interface : Installed external ASPI interface
Used output format : User Defined Encoder
Selected bitrate : 128 kBit/s
Quality : High
Add ID3 tag : No
Command line compressor : C:\Program Files\EAC\Exact Audio Copy\Flac\flac.exe
Additional command line options : -V -8 -T "Date=%year%" -T "Genre=%genre%" %source%
TOC of the extracted CD
Track | Start | Length | Start sector | End sector
---------------------------------------------------------
1 | 0:00.00 | 7:14.23 | 0 | 32572
2 | 7:14.23 | 6:55.06 | 32573 | 63703
3 | 14:09.29 | 9:34.40 | 63704 | 106793
4 | 23:43.69 | 10:43.73 | 106794 | 155091
5 | 34:27.67 | 6:52.43 | 155092 | 186034
6 | 41:20.35 | 8:51.35 | 186035 | 225894
Range status and errors
Selected range
Filename C:\darkbrides\(EchO) - Head First Into Shadows.wav
Peak level 98.8 %
Extraction speed 0.8 X
Range quality 99.9 %
Test CRC DF06286B
Copy CRC DF06286B
Copy OK
No errors occurred
AccurateRip summary
Track 1 not present in database
Track 2 not present in database
Track 3 not present in database
Track 4 not present in database
Track 5 not present in database
Track 6 not present in database
None of the tracks are present in the AccurateRip database
End of status report
---- CUETools DB Plugin V2.1.6
[CTDB TOCID: WQWZi6SIWdyBj4fZGVX.bOMQ870-] disk not present in database
Submit result: WQWZi6SIWdyBj4fZGVX.bOMQ870- has been uploaded
==== Log checksum EB4C8BFFB5AAACEC2887487139D0EFC0A6D3A2AC84B39A854CC045623CBCF1A5 ====
-
REM GENRE Melodic Death/Doom Metal
REM DATE 2016
REM DISCID 4A0BC306
REM COMMENT 23 May, 2016 Russia
PERFORMER "(EchO)"
TITLE "Head First Into Shadows"
FILE "(EchO) - Head First Into Shadows.flac" WAVE
TRACK 01 AUDIO
TITLE "Blood and Skin"
INDEX 01 00:00:00
TRACK 02 AUDIO
TITLE "A Place We Use to Call Home"
INDEX 00 07:12:23
INDEX 01 07:14:23
TRACK 03 AUDIO
TITLE "Beneath this Lake"
INDEX 00 14:07:29
INDEX 01 14:09:29
TRACK 04 AUDIO
TITLE "Gone"
INDEX 00 23:41:69
INDEX 01 23:43:69
TRACK 05 AUDIO
TITLE "A New Maze"
INDEX 00 34:25:67
INDEX 01 34:27:67
TRACK 06 AUDIO
TITLE "Order of the Nightshade"
INDEX 00 41:18:35
INDEX 01 41:20:35
-
-
--Работаю не за Спасибо , а за ИДЕЮ.--
Download / Скачать

Хотите скачать бесплатно? Зарегистрируйтесь на сайте (ссылка на регистрацию). Pirat.ca - самый быстрый торрент трекер в рунете!

Как скачивать  ·   Что такое торрент  ·   Рейтинг и ограничения

BilG

Корсар

Пост 29-Мар-2017 11:45 (спустя 6 месяцев 25 дней)

[Q] 

Уважуха!!!

_________________
[Профиль]  [ЛС] 
Показать сообщения:    
Ответить на тему

Текущее время: Сегодня 19:35

Часовой пояс: GMT + 4



Вы не можете начинать темы
Вы не можете отвечать на сообщения
Вы не можете редактировать свои сообщения
Вы не можете удалять свои сообщения
Вы не можете голосовать в опросах
Вы не можете прикреплять файлы к сообщениям
Вы не можете скачивать файлы

▼ Вниз