Уважаемый Гость!
Вы можете поддержать проект и зарегистрироваться у наших партнеров - онлайн-стратегия MyLands. При регистрации в игре Вы получите код, который сможете активировать после регистрации на pirat.ca и получить 1000 дублонов.

Ваш код:
d49a3625bbdee1b82b14274f97c375f8b2b2ee4c
 
     

(Technical Death Metal) Apophys - Prime Incursion - 2015 [FLAC, image+.cue, lossless]

Ответить на тему
 
Автор
Сообщение

Пост 10-Сен-2016 00:27

[Q] 

Дядя Вова

Гроза морей

-Apophys - Prime Incursion-- Год издания: 2015
Страна: Netherlands
Жанр: Technical Death Metal
Продолжительность: 00:39:10-Лейбл издания: Fono
Тип альбома: Master
Страна-выпуска диска: April 1st, 2015 Russia
Номер по каталогу: [FO1136CD]
Формат: FLAC
Битрейт аудио: lossless
Тип рипа: image+.cue
Наличие сканов в содержимом раздачи: да-
01. Dimensional Odyssey
02. Miscreants
03. Requiem for the Absurd
04. The Antidote
05. Ego
06. The Sentient
07. The Final Step
08. Humanity's Epilogue
09. The Red Planet
-
Exact Audio Copy V1.0 beta 3 from 29. August 2011
EAC extraction logfile from 10. April 2015, 17:40
Apophys / Prime Incursion
Used drive : PLEXTOR DVDR PX-860A Adapter: 4 ID: 0
Read mode : Secure
Utilize accurate stream : Yes
Defeat audio cache : Yes
Make use of C2 pointers : No
Read offset correction : 96
Overread into Lead-In and Lead-Out : No
Fill up missing offset samples with silence : Yes
Delete leading and trailing silent blocks : No
Null samples used in CRC calculations : Yes
Used interface : Installed external ASPI interface
Used output format : User Defined Encoder
Selected bitrate : 128 kBit/s
Quality : High
Add ID3 tag : Yes
Command line compressor : G:\Program Files (x86)\Exact Audio Copy\Flac\flac.exe
Additional command line options : -V -8 -T "Date=%year%" -T "Genre=%genre%" %source%
TOC of the extracted CD
Track | Start | Length | Start sector | End sector
---------------------------------------------------------
1 | 0:00.00 | 3:44.00 | 0 | 16799
2 | 3:44.00 | 4:22.56 | 16800 | 36505
3 | 8:06.56 | 4:15.12 | 36506 | 55642
4 | 12:21.68 | 4:35.44 | 55643 | 76311
5 | 16:57.37 | 5:44.68 | 76312 | 102179
6 | 22:42.30 | 4:15.71 | 102180 | 121375
7 | 26:58.26 | 3:43.73 | 121376 | 138173
8 | 30:42.24 | 4:42.45 | 138174 | 159368
9 | 35:24.69 | 3:45.35 | 159369 | 176278
Range status and errors
Selected range
Filename D:\MUSIC\Apophys - Prime Incursion.wav
Peak level 100.0 %
Extraction speed 7.1 X
Range quality 100.0 %
Test CRC F48F2703
Copy CRC F48F2703
Copy OK
No errors occurred
AccurateRip summary
Track 1 not present in database
Track 2 not present in database
Track 3 not present in database
Track 4 not present in database
Track 5 not present in database
Track 6 not present in database
Track 7 not present in database
Track 8 not present in database
Track 9 not present in database
None of the tracks are present in the AccurateRip database
End of status report
==== Log checksum CCFDEAF58DBA0D1D419CCF248E8A231B82C361982C1DA1C5656E91E14237A07C ====
-
REM GENRE Technical Death Metal
REM DATE 2015
REM DISCID 6C092E09
REM COMMENT 2015 Russia
PERFORMER "Apophys"
TITLE "Prime Incursion"
FILE "Apophys - Prime Incursion.flac" WAVE
TRACK 01 AUDIO
TITLE " Dimensional Odyssey"
INDEX 01 00:00:00
TRACK 02 AUDIO
TITLE " Miscreants"
INDEX 01 03:44:00
TRACK 03 AUDIO
TITLE " Requiem for the Absurd"
INDEX 01 08:06:56
TRACK 04 AUDIO
TITLE " The Antidote"
INDEX 01 12:21:68
TRACK 05 AUDIO
TITLE " Ego"
INDEX 01 16:57:37
TRACK 06 AUDIO
TITLE " The Sentient"
INDEX 01 22:42:30
TRACK 07 AUDIO
TITLE " The Final Step"
INDEX 01 26:58:26
TRACK 08 AUDIO
TITLE " Humanity’s Epilogue"
INDEX 01 30:42:24
TRACK 09 AUDIO
TITLE " The Red Planet"
INDEX 01 35:24:69
-
-
--Работаю не за Спасибо , а за ИДЕЮ.--
Download / Скачать

Хотите скачать бесплатно? Зарегистрируйтесь на сайте (ссылка на регистрацию). Pirat.ca - самый быстрый торрент трекер в рунете!

Как скачивать  ·   Что такое торрент  ·   Рейтинг и ограничения

BilG

Корсар

Пост 29-Мар-2017 11:49 (спустя 6 месяцев 19 дней)

[Q] 

Хороший характер — богатство на всю жизнь.

_________________
[Профиль]  [ЛС] 
Показать сообщения:    
Ответить на тему

Текущее время: Сегодня 19:46

Часовой пояс: GMT + 4



Вы не можете начинать темы
Вы не можете отвечать на сообщения
Вы не можете редактировать свои сообщения
Вы не можете удалять свои сообщения
Вы не можете голосовать в опросах
Вы не можете прикреплять файлы к сообщениям
Вы не можете скачивать файлы

▼ Вниз