Уважаемый Гость!
Вы можете поддержать проект и зарегистрироваться у наших партнеров - онлайн-стратегия MyLands. При регистрации в игре Вы получите код, который сможете активировать после регистрации на pirat.ca и получить 1000 дублонов.

Ваш код:
b35b3ec45a7bd3f86315766471edc285be832af4
 
     

(Melodic Power Metal) Almah - E.V.O. - 2016 [FLAC, image+.cue, lossless]

Ответить на тему
 
Автор
Сообщение

Пост 17-Сен-2016 13:43

[Q] 

Дядя Вова

Гроза морей

-Almah - E.V.O.-- Год издания: 2016
Страна: São Paulo, São Paulo, Brazil
Жанр: Melodic Power Metal
Продолжительность: 00:51:26-Лейбл издания: King Records
Тип альбома: Master
Страна-выпуска диска: September 7th, 2016, Japan
Номер по каталогу: KICP-1770
Формат: FLAC
Битрейт аудио: lossless
Тип рипа: image+.cue
Наличие сканов в содержимом раздачи: да-
01. Age Of Aquarius
02. Speranza
03. The Brotherhood
04. Innocence
05. Higher
06. Infatuated
07. Pleased To Meet You
08. Final Warning
09. Indigo
10. Corporate War
11. Capital Punishment
Exact Audio Copy V1.2 from 12. August 2016
EAC extraction logfile from 15. September 2016, 17:24
Almah / E.V.O. (Japan)
Used drive : ATAPI iHAS122 W Adapter: 2 ID: 0
Read mode : Secure
Utilize accurate stream : Yes
Defeat audio cache : Yes
Make use of C2 pointers : No
Read offset correction : 48
Overread into Lead-In and Lead-Out : No
Fill up missing offset samples with silence : Yes
Delete leading and trailing silent blocks : No
Null samples used in CRC calculations : Yes
Used interface : Installed external ASPI interface
Used output format : User Defined Encoder
Selected bitrate : 1024 kBit/s
Quality : High
Add ID3 tag : No
Command line compressor : C:\Program Files\FLAC\flac.exe
Additional command line options : -V -8 -T "Date=%year%" -T "Genre=%genre%" -T"COMMENT=Ripped by Ilijan" -8 -V %source%
TOC of the extracted CD
Track | Start | Length | Start sector | End sector
---------------------------------------------------------
1 | 0:00.00 | 7:13.29 | 0 | 32503
2 | 7:13.29 | 4:55.61 | 32504 | 54689
3 | 12:09.15 | 4:41.70 | 54690 | 75834
4 | 16:51.10 | 4:35.40 | 75835 | 96499
5 | 21:26.50 | 5:09.70 | 96500 | 119744
6 | 26:36.45 | 4:05.03 | 119745 | 138122
7 | 30:41.48 | 4:24.36 | 138123 | 157958
8 | 35:06.09 | 4:13.43 | 157959 | 176976
9 | 39:19.52 | 3:46.34 | 176977 | 193960
10 | 43:06.11 | 4:18.74 | 193961 | 213384
11 | 47:25.10 | 4:00.55 | 213385 | 231439
Range status and errors
Selected range
Filename D:\ilко\Almah - E.V.O. (Japan).wav
Peak level 100.0 %
Extraction speed 3.8 X
Range quality 100.0 %
Test CRC E8B4A0D0
Copy CRC E8B4A0D0
Copy OK
No errors occurred
AccurateRip summary
Track 1 not present in database
Track 2 not present in database
Track 3 not present in database
Track 4 not present in database
Track 5 not present in database
Track 6 not present in database
Track 7 not present in database
Track 8 not present in database
Track 9 not present in database
Track 10 not present in database
Track 11 not present in database
None of the tracks are present in the AccurateRip database
End of status report
---- CUETools DB Plugin V2.1.6
[CTDB TOCID: leAYiDuxLB_h7i6uEz4HqNH_hdA-] disk not present in database
Submit result: leAYiDuxLB_h7i6uEz4HqNH_hdA- has been uploaded
==== Log checksum 66ECE5979F07B50F6A51A2731CDF8263C293B304006BCCE838C1D9FD5DB26262 ====
-
REM GENRE Melodic Power Metal
REM DATE 2016
REM COMMENT 2016, Japan, First Press, DR6
PERFORMER "Almah"
TITLE "E.V.O."
FILE "Almah - E.V.O..flac" WAVE
TRACK 01 AUDIO
TITLE "Age Of Aquarius"
INDEX 01 00:00:00
TRACK 02 AUDIO
TITLE "Speranza"
INDEX 01 07:13:29
TRACK 03 AUDIO
TITLE "The Brotherhood"
INDEX 01 12:09:15
TRACK 04 AUDIO
TITLE "Innocence"
INDEX 01 16:51:10
TRACK 05 AUDIO
TITLE "Higher"
INDEX 01 21:26:50
TRACK 06 AUDIO
TITLE "Infatuated"
INDEX 01 26:36:45
TRACK 07 AUDIO
TITLE "Pleased To Meet You"
INDEX 01 30:41:48
TRACK 08 AUDIO
TITLE "Final Warning"
INDEX 01 35:06:09
TRACK 09 AUDIO
TITLE "Indigo"
INDEX 01 39:19:52
TRACK 10 AUDIO
TITLE "Corporate War"
INDEX 01 43:06:11
TRACK 11 AUDIO
TITLE "Capital Punishment"
INDEX 01 47:25:10
-
-
--Работаю не за Спасибо , а за ИДЕЮ.--
Download / Скачать

Хотите скачать бесплатно? Зарегистрируйтесь на сайте (ссылка на регистрацию). Pirat.ca - самый быстрый торрент трекер в рунете!

Как скачивать  ·   Что такое торрент  ·   Рейтинг и ограничения

Пост 17-Сен-2016 15:07 (спустя 1 час 23 минуты)

Топик был перенесен из форума Rock (Трюм) в форум Metal
sergej644
 

BilG

Корсар

Пост 29-Мар-2017 11:54 (спустя 6 месяцев 11 дней)

[Q] 

Попробую скачать.

_________________
[Профиль]  [ЛС] 
Показать сообщения:    
Ответить на тему

Текущее время: Сегодня 19:00

Часовой пояс: GMT + 4



Вы не можете начинать темы
Вы не можете отвечать на сообщения
Вы не можете редактировать свои сообщения
Вы не можете удалять свои сообщения
Вы не можете голосовать в опросах
Вы не можете прикреплять файлы к сообщениям
Вы не можете скачивать файлы

▼ Вниз