Уважаемый Гость!
Вы можете поддержать проект и зарегистрироваться у наших партнеров - онлайн-стратегия MyLands. При регистрации в игре Вы получите код, который сможете активировать после регистрации на pirat.ca и получить 1000 дублонов.

Ваш код:
d49a3625bbdee1b82b14274f97c375f8b2b2ee4c
 
     

(Black Metal) Svarttjern - Dødsskrik - 2016 [FLAC, image+.cue, lossless]

Ответить на тему
 
Автор
Сообщение

Пост 18-Сен-2016 21:38

[Q] 

Дядя Вова

Гроза морей

-Svarttjern - Dødsskrik-- Год издания: 2016
Страна: Norway
Жанр: Black Metal
Продолжительность: 00:42:31-Лейбл издания: Soulseller Records
Тип альбома: Master
Страна-выпуска диска: 29 Apr, 2016 Netherlands
Номер по каталогу: [SSR 089]
Формат: FLAC
Битрейт аудио: lossless
Тип рипа: image+.cue
Наличие сканов в содержимом раздачи: да-
01. Intro
02. All Hail Satan
03. Admiring Death
04. Blessed Flesh
05. Det river i meg
06. Whispers and Prayers
07. Stars and Death
08. Dødsskrik
09. Hengivelse til døden
10. Acid Dreams
Exact Audio Copy V1.1 from 23. June 2015
EAC extraction logfile from 20. July 2016, 15:49
Svarttjern / Dødsskrik
Used drive : PLEXTOR DVDR PX-891SA Adapter: 1 ID: 0
Read mode : Secure
Utilize accurate stream : Yes
Defeat audio cache : Yes
Make use of C2 pointers : No
Read offset correction : 6
Overread into Lead-In and Lead-Out : No
Fill up missing offset samples with silence : Yes
Delete leading and trailing silent blocks : No
Null samples used in CRC calculations : Yes
Used interface : Native Win32 interface for Win NT & 2000
Used output format : User Defined Encoder
Selected bitrate : 896 kBit/s
Quality : High
Add ID3 tag : No
Command line compressor : C:\Program Files (x86)\Exact Audio Copy\Flac\flac.exe
Additional command line options : -6 -V %source%
TOC of the extracted CD
Track | Start | Length | Start sector | End sector
---------------------------------------------------------
1 | 0:00.00 | 1:12.74 | 0 | 5473
2 | 1:12.74 | 4:42.02 | 5474 | 26625
3 | 5:55.01 | 4:08.72 | 26626 | 45297
4 | 10:03.73 | 5:56.55 | 45298 | 72052
5 | 16:00.53 | 3:59.22 | 72053 | 89999
6 | 20:00.00 | 3:34.63 | 90000 | 106112
7 | 23:34.63 | 5:26.01 | 106113 | 130563
8 | 29:00.64 | 4:02.48 | 130564 | 148761
9 | 33:03.37 | 4:44.13 | 148762 | 170074
10 | 37:47.50 | 4:43.25 | 170075 | 191324
Range status and errors
Selected range
Filename D:\MeTaLMaDNeSS.TeaM\Svarttjern (NOR) - Dodsskrik\Svarttjern - Dødsskrik.wav
Peak level 98.5 %
Extraction speed 8.0 X
Range quality 100.0 %
Test CRC 554975D7
Copy CRC 554975D7
Copy OK
No errors occurred
AccurateRip summary
Track 1 accurately ripped (confidence 1) [8C918521] (AR v2)
Track 2 accurately ripped (confidence 1) [AF0EDC87] (AR v2)
Track 3 accurately ripped (confidence 1) [B5B0CC11] (AR v2)
Track 4 accurately ripped (confidence 1) [7F4C17CC] (AR v2)
Track 5 accurately ripped (confidence 1) [66C3DB7A] (AR v2)
Track 6 accurately ripped (confidence 1) [C31EB96C] (AR v2)
Track 7 accurately ripped (confidence 1) [5E34DF28] (AR v2)
Track 8 accurately ripped (confidence 1) [42F2FE6C] (AR v2)
Track 9 accurately ripped (confidence 1) [82532604] (AR v2)
Track 10 accurately ripped (confidence 1) [A778BC0A] (AR v2)
All tracks accurately ripped
End of status report
---- CUETools DB Plugin V2.1.6
[CTDB TOCID: M9K8vlbg86cl6FXS_sIOVugE088-] disk not present in database
Submit result: M9K8vlbg86cl6FXS_sIOVugE088- has been uploaded
==== Log checksum 7B86F8C57C5DE66B16D00547D2E2928677AA23807947DFBD94EF4C1E970F8484 ====
-
REM GENRE Black Metal
REM DATE 2016
REM DISCID 8109F70A
REM COMMENT 29 Apr, 2016 Netherlands
PERFORMER "Svarttjern"
TITLE "Dшdsskrik"
FILE "Svarttjern - Dшdsskrik.flac" WAVE
TRACK 01 AUDIO
TITLE "Intro"
INDEX 01 00:00:00
TRACK 02 AUDIO
TITLE "All Hail Satan"
INDEX 01 01:12:74
TRACK 03 AUDIO
TITLE "Admiring Death"
INDEX 01 05:55:01
TRACK 04 AUDIO
TITLE "Blessed Flesh"
INDEX 01 10:03:73
TRACK 05 AUDIO
TITLE "Det river i meg"
INDEX 01 16:00:53
TRACK 06 AUDIO
TITLE "Whispers and Prayers"
INDEX 01 20:00:00
TRACK 07 AUDIO
TITLE "Stars and Death"
INDEX 01 23:34:63
TRACK 08 AUDIO
TITLE "Dшdsskrik"
INDEX 01 29:00:64
TRACK 09 AUDIO
TITLE "Hengivelse til dшden"
INDEX 01 33:03:37
TRACK 10 AUDIO
TITLE "Acid Dreams"
INDEX 01 37:47:50
-
-
--Работаю не за Спасибо , а за ИДЕЮ.--
Download / Скачать

Хотите скачать бесплатно? Зарегистрируйтесь на сайте (ссылка на регистрацию). Pirat.ca - самый быстрый торрент трекер в рунете!

Как скачивать  ·   Что такое торрент  ·   Рейтинг и ограничения

BilG

Корсар

Пост 16-Мар-2017 18:07 (спустя 5 месяцев 27 дней)

[Q] 

Есть такая стадия опьянения, когда каждый думает, что он(она) очень классно танцует.

_________________
[Профиль]  [ЛС] 
Показать сообщения:    
Ответить на тему

Текущее время: Сегодня 19:42

Часовой пояс: GMT + 4



Вы не можете начинать темы
Вы не можете отвечать на сообщения
Вы не можете редактировать свои сообщения
Вы не можете удалять свои сообщения
Вы не можете голосовать в опросах
Вы не можете прикреплять файлы к сообщениям
Вы не можете скачивать файлы

▼ Вниз