Уважаемый Гость!
Вы можете поддержать проект и зарегистрироваться у наших партнеров - онлайн-стратегия MyLands. При регистрации в игре Вы получите код, который сможете активировать после регистрации на pirat.ca и получить 1000 дублонов.

Ваш код:
b35b3ec45a7bd3f86315766471edc285be832af4
 
     

(Power Metal) Iron Mask - Diabolica - 2016 [FLAC, image+.cue, lossless]

Ответить на тему
 
Автор
Сообщение

Пост 01-Окт-2016 20:03

[Q] 

Дядя Вова

Гроза морей

- Iron Mask - Diabolica-- Год издания: 2016
Страна: Brussels, Belgium
Жанр: Power Metal
Продолжительность: 01:15:46-Лейбл издания: Avalon/Marquee Inc.
Тип альбома: Master
Страна-выпуска диска: 21 Sep, 2016 Japan
Номер по каталогу: [MICP-11315]
Формат: FLAC
Битрейт аудио: lossless
Тип рипа: image+.cue
Наличие сканов в содержимом раздачи: да-
01. I Don't Forget, I Don't Forgive
02. Doctor Faust
03. Galileo
04. Oliver Twist
05. March 666
06. All for Metal
07. The Rebellion of Lucifer
08. Diabolica
09. The First and the Last
10. Ararat
11. Flying Fortress
12. Cursed in the Devil's Mill
-
Exact Audio Copy V1.2 from 12. August 2016
EAC extraction logfile from 30. September 2016, 11:17
Iron Mask / Diabolica (Japan)
Used drive : ATAPI iHAS122 W Adapter: 2 ID: 0
Read mode : Secure
Utilize accurate stream : Yes
Defeat audio cache : Yes
Make use of C2 pointers : No
Read offset correction : 48
Overread into Lead-In and Lead-Out : No
Fill up missing offset samples with silence : Yes
Delete leading and trailing silent blocks : No
Null samples used in CRC calculations : Yes
Used interface : Installed external ASPI interface
Used output format : User Defined Encoder
Selected bitrate : 1024 kBit/s
Quality : High
Add ID3 tag : No
Command line compressor : C:\Program Files\FLAC\flac.exe
Additional command line options : -V -8 -T "Date=%year%" -T "Genre=%genre%" -T"COMMENT=Ripped by Ilijan" -8 -V %source%
TOC of the extracted CD
Track | Start | Length | Start sector | End sector
---------------------------------------------------------
1 | 0:00.00 | 4:38.64 | 0 | 20913
2 | 4:38.64 | 7:38.32 | 20914 | 55295
3 | 12:17.21 | 6:42.70 | 55296 | 85515
4 | 19:00.16 | 6:31.59 | 85516 | 114899
5 | 25:32.00 | 4:50.19 | 114900 | 136668
6 | 30:22.19 | 3:57.34 | 136669 | 154477
7 | 34:19.53 | 5:58.70 | 154478 | 181397
8 | 40:18.48 | 5:10.16 | 181398 | 204663
9 | 45:28.64 | 4:23.11 | 204664 | 224399
10 | 49:52.00 | 7:08.00 | 224400 | 256499
11 | 57:00.00 | 4:49.53 | 256500 | 278227
12 | 61:49.53 | 13:56.58 | 278228 | 340985
Range status and errors
Selected range
Filename D:\ilко\Iron Mask - Diabolica (Japan).wav
Peak level 98.0 %
Extraction speed 4.6 X
Range quality 100.0 %
Test CRC E73DDECE
Copy CRC E73DDECE
Copy OK
No errors occurred
AccurateRip summary
Track 1 not present in database
Track 2 not present in database
Track 3 not present in database
Track 4 not present in database
Track 5 not present in database
Track 6 not present in database
Track 7 not present in database
Track 8 not present in database
Track 9 not present in database
Track 10 not present in database
Track 11 not present in database
Track 12 not present in database
None of the tracks are present in the AccurateRip database
End of status report
---- CUETools DB Plugin V2.1.6
[CTDB TOCID: 1XFa3_ibNS4y7s.CRl9q.oEoAwE-] disk not present in database
Submit result: 1XFa3_ibNS4y7s.CRl9q.oEoAwE- has been uploaded
==== Log checksum 156844E1443DE27D9969A710B058D15A5F6BE5800DE71DAAE9CAE6AA62E84687 ====
-
REM GENRE "Power Metal"
REM DATE 2016
REM DISCID 8F11C20C
REM COMMENT "ExactAudioCopy v1.2"
PERFORMER "Iron Mask"
TITLE "Diabolica (Japan)"
REM COMPOSER ""
FILE "Iron Mask - Diabolica (Japan).flac" WAVE
TRACK 01 AUDIO
TITLE "I Don't Forget, I Don't Forgive"
PERFORMER "Iron Mask"
REM COMPOSER ""
INDEX 01 00:00:00
TRACK 02 AUDIO
TITLE "Doctor Faust"
PERFORMER "Iron Mask"
REM COMPOSER ""
INDEX 01 04:38:64
TRACK 03 AUDIO
TITLE "Galileo"
PERFORMER "Iron Mask"
REM COMPOSER ""
INDEX 01 12:17:21
TRACK 04 AUDIO
TITLE "Oliver Twist"
PERFORMER "Iron Mask"
REM COMPOSER ""
INDEX 01 19:00:16
TRACK 05 AUDIO
TITLE "March 666"
PERFORMER "Iron Mask"
REM COMPOSER ""
INDEX 01 25:32:00
TRACK 06 AUDIO
TITLE "All For Metal"
PERFORMER "Iron Mask"
REM COMPOSER ""
INDEX 01 30:22:19
TRACK 07 AUDIO
TITLE "The Rebellion Of Lucifer"
PERFORMER "Iron Mask"
REM COMPOSER ""
INDEX 01 34:19:53
TRACK 08 AUDIO
TITLE "Diabolica"
PERFORMER "Iron Mask"
REM COMPOSER ""
INDEX 01 40:18:48
TRACK 09 AUDIO
TITLE "The First And The Last"
PERFORMER "Iron Mask"
REM COMPOSER ""
INDEX 01 45:28:64
TRACK 10 AUDIO
TITLE "Ararat"
PERFORMER "Iron Mask"
REM COMPOSER ""
INDEX 01 49:52:00
TRACK 11 AUDIO
TITLE "Flying Fortress"
PERFORMER "Iron Mask"
REM COMPOSER ""
INDEX 01 57:00:00
TRACK 12 AUDIO
TITLE "Cursed In The Devil's Mill"
PERFORMER "Iron Mask"
REM COMPOSER ""
INDEX 01 61:49:53
-
-
--Работаю не за Спасибо , а за ИДЕЮ.--
Download / Скачать

Хотите скачать бесплатно? Зарегистрируйтесь на сайте (ссылка на регистрацию). Pirat.ca - самый быстрый торрент трекер в рунете!

Как скачивать  ·   Что такое торрент  ·   Рейтинг и ограничения

BilG

Корсар

Пост 16-Мар-2017 17:55 (спустя 5 месяцев 14 дней)

[Q] 

Кто может — делает, кто не может — учит

_________________
[Профиль]  [ЛС] 
Показать сообщения:    
Ответить на тему

Текущее время: Сегодня 18:59

Часовой пояс: GMT + 4



Вы не можете начинать темы
Вы не можете отвечать на сообщения
Вы не можете редактировать свои сообщения
Вы не можете удалять свои сообщения
Вы не можете голосовать в опросах
Вы не можете прикреплять файлы к сообщениям
Вы не можете скачивать файлы

▼ Вниз