Уважаемый Гость!
Вы можете поддержать проект и зарегистрироваться у наших партнеров - онлайн-стратегия MyLands. При регистрации в игре Вы получите код, который сможете активировать после регистрации на pirat.ca и получить 1000 дублонов.

Ваш код:
1b8effbb2d91248629d5897a85d0d1c4a4c433f0
 
     

(Heavy Metal) Steve Grimmett's Grim Reaper - Walking In The Shadows (Japanese Edition) - 2016 [FLAC, image+.cue, lossless]

Ответить на тему
 
Автор
Сообщение

Пост 08-Окт-2016 00:01

[Q] 

Дядя Вова

Гроза морей

-Steve Grimmett's Grim Reaper - Walking In The Shadows (Japanese Edition)-- Год издания: 2016
Страна: Swindon, England
Жанр: Heavy Metal
Продолжительность: 00:55:47-Лейбл издания: Spiritual Beast
Тип альбома: Master
Страна-выпуска диска: September 28th, 2016, Japan
Номер по каталогу: IUCP-16248
Формат: FLAC
Битрейт аудио: lossless
Тип рипа: image+.cue
Наличие сканов в содержимом раздачи: да-
01. Wings of Angels
02. Walking In Ihe Shadows
03. Reach Out
04. I'm Coming For You
05. From Hell
06. Call Me In The Morning
07. Rock Will Never Die
08. Temptation
09. Thunder
10. Now You See Me
11. Blue Murder
12. Come Hell Or High Water
13. Wings Of Angels (feat. Russ Grimmett) (Bonus Track)
-
Exact Audio Copy V1.2 from 12. August 2016
EAC extraction logfile from 3. October 2016, 12:42
Steve Grimmett's Grim Reaper / Walking In The Shadows (Japan)
Used drive : ATAPI iHAS122 W Adapter: 2 ID: 0
Read mode : Secure
Utilize accurate stream : Yes
Defeat audio cache : Yes
Make use of C2 pointers : No
Read offset correction : 48
Overread into Lead-In and Lead-Out : No
Fill up missing offset samples with silence : Yes
Delete leading and trailing silent blocks : No
Null samples used in CRC calculations : Yes
Used interface : Installed external ASPI interface
Used output format : User Defined Encoder
Selected bitrate : 1024 kBit/s
Quality : High
Add ID3 tag : No
Command line compressor : C:\Program Files\FLAC\flac.exe
Additional command line options : -V -8 -T "Date=%year%" -T "Genre=%genre%" -T"COMMENT=Ripped by Ilijan" -8 -V %source%
TOC of the extracted CD
Track | Start | Length | Start sector | End sector
---------------------------------------------------------
1 | 0:00.00 | 5:15.27 | 0 | 23651
2 | 5:15.27 | 4:21.15 | 23652 | 43241
3 | 9:36.42 | 3:33.60 | 43242 | 59276
4 | 13:10.27 | 4:17.72 | 59277 | 78623
5 | 17:28.24 | 3:25.00 | 78624 | 93998
6 | 20:53.24 | 3:13.13 | 93999 | 108486
7 | 24:06.37 | 4:05.23 | 108487 | 126884
8 | 28:11.60 | 3:28.02 | 126885 | 142486
9 | 31:39.62 | 5:43.38 | 142487 | 168249
10 | 37:23.25 | 4:18.51 | 168250 | 187650
11 | 41:42.01 | 4:47.36 | 187651 | 209211
12 | 46:29.37 | 4:02.23 | 209212 | 227384
13 | 50:31.60 | 5:15.27 | 227385 | 251036
Range status and errors
Selected range
Filename D:\ilко\Steve Grimmett's Grim Reaper - Walking In The Shadows (Japan).wav
Peak level 100.0 %
Extraction speed 3.9 X
Range quality 100.0 %
Test CRC 232C0B35
Copy CRC 232C0B35
Copy OK
No errors occurred
AccurateRip summary
Track 1 not present in database
Track 2 not present in database
Track 3 not present in database
Track 4 not present in database
Track 5 not present in database
Track 6 not present in database
Track 7 not present in database
Track 8 not present in database
Track 9 not present in database
Track 10 not present in database
Track 11 not present in database
Track 12 not present in database
Track 13 not present in database
None of the tracks are present in the AccurateRip database
End of status report
---- CUETools DB Plugin V2.1.6
[CTDB TOCID: clkVu298EG0kY6vaSFUpwqjwOGU-] disk not present in database
Submit result: clkVu298EG0kY6vaSFUpwqjwOGU- has been uploaded
==== Log checksum AB4E062767CC53E62ABC17EE1474919B733D9EBF6395DE9E113A20C99686F832 ====
-
REM GENRE Heavy Metal
REM DATE 2016
REM COMMENT 2016, Japan, First Press, DR6
PERFORMER "Steve Grimmett's Grim Reaper"
TITLE "Walking In The Shadows"
FILE "Steve Grimmett's Grim Reaper - Walking In The Shadows.flac" WAVE
TRACK 01 AUDIO
TITLE "Wings Of Angels"
INDEX 01 00:00:00
TRACK 02 AUDIO
TITLE "Walking In The Shadows"
INDEX 01 05:15:27
TRACK 03 AUDIO
TITLE "Reach Out"
INDEX 01 09:36:42
TRACK 04 AUDIO
TITLE "I'm Coming For You"
INDEX 01 13:10:27
TRACK 05 AUDIO
TITLE "From Hell"
INDEX 01 17:28:24
TRACK 06 AUDIO
TITLE "Call Me In The Morning"
INDEX 01 20:53:24
TRACK 07 AUDIO
TITLE "Rock Will Never Die"
INDEX 01 24:06:37
TRACK 08 AUDIO
TITLE "Temptation"
INDEX 01 28:11:60
TRACK 09 AUDIO
TITLE "Thunder"
INDEX 01 31:39:62
TRACK 10 AUDIO
TITLE "Now You See Me"
INDEX 01 37:23:25
TRACK 11 AUDIO
TITLE "Blue Murder"
INDEX 01 41:42:01
TRACK 12 AUDIO
TITLE "Come Hell Or High Water"
INDEX 01 46:29:37
TRACK 13 AUDIO
TITLE "Wings Of Angels (feat. Russ Grimmett) (Bonus Track)"
INDEX 00 50:28:60
INDEX 01 50:31:60
-
-
--Работаю не за Спасибо , а за ИДЕЮ.--
Download / Скачать

Хотите скачать бесплатно? Зарегистрируйтесь на сайте (ссылка на регистрацию). Pirat.ca - самый быстрый торрент трекер в рунете!

Как скачивать  ·   Что такое торрент  ·   Рейтинг и ограничения

BilG

Корсар

Пост 16-Мар-2017 17:25 (спустя 5 месяцев 8 дней)

[Q] 

Мне понравилось!

_________________
[Профиль]  [ЛС] 
Показать сообщения:    
Ответить на тему

Текущее время: Сегодня 02:48

Часовой пояс: GMT + 4



Вы не можете начинать темы
Вы не можете отвечать на сообщения
Вы не можете редактировать свои сообщения
Вы не можете удалять свои сообщения
Вы не можете голосовать в опросах
Вы не можете прикреплять файлы к сообщениям
Вы не можете скачивать файлы

▼ Вниз