Уважаемый Гость!
Вы можете поддержать проект и зарегистрироваться у наших партнеров - онлайн-стратегия MyLands. При регистрации в игре Вы получите код, который сможете активировать после регистрации на pirat.ca и получить 1000 дублонов.

Ваш код:
bf76b4fde44c7189cfb4d32d5b204facc1d6d492
 
     

(Melodic Death Metal/Metalcore) The Agonist - Five (Japanese Edition) - 2016 [FLAC, image+.cue, lossless]

Ответить на тему
 
Автор
Сообщение

Пост 08-Окт-2016 00:22

[Q] 

Дядя Вова

Гроза морей

-The Agonist - Five (Japanese Edition)-- Год издания: 2016
Страна: Montreal, Quebec, Canada
Жанр: Melodic Death Metal/Metalcore
Продолжительность: 01:02:44-Лейбл издания: Chaos Reigns
Тип альбома: Master
Страна-выпуска диска: September 28th, 2016, Japan
Номер по каталогу: GQCS-90210
Формат: FLAC
Битрейт аудио: lossless
Тип рипа: image+.cue
Наличие сканов в содержимом раздачи: да-
01. The Moment
02. The Chain
03. The Anchor And The Sail
04. The Game
05. The Ocean
06. The Hunt
07. The Raven Eyes
08. The Wake
09. The Resurrection
10. The Villain
11. The Pursuit Of Emptiness
12. The Man Who Fell To Earth
13. The Trial
14. Take Me To Church (Cover) (Bonus Track)
15. The Raven Eyes (Acoustic) (Bonus Track)
-
Exact Audio Copy V1.2 from 12. August 2016
EAC extraction logfile from 3. October 2016, 13:25
The Agonist / Five (Japan)
Used drive : ATAPI iHAS122 W Adapter: 2 ID: 0
Read mode : Secure
Utilize accurate stream : Yes
Defeat audio cache : Yes
Make use of C2 pointers : No
Read offset correction : 48
Overread into Lead-In and Lead-Out : No
Fill up missing offset samples with silence : Yes
Delete leading and trailing silent blocks : No
Null samples used in CRC calculations : Yes
Used interface : Installed external ASPI interface
Used output format : User Defined Encoder
Selected bitrate : 1024 kBit/s
Quality : High
Add ID3 tag : No
Command line compressor : C:\Program Files\FLAC\flac.exe
Additional command line options : -V -8 -T "Date=%year%" -T "Genre=%genre%" -T"COMMENT=Ripped by Ilijan" -8 -V %source%
TOC of the extracted CD
Track | Start | Length | Start sector | End sector
---------------------------------------------------------
1 | 0:00.00 | 4:14.01 | 0 | 19050
2 | 4:14.01 | 3:12.00 | 19051 | 33450
3 | 7:26.01 | 3:49.01 | 33451 | 50626
4 | 11:15.02 | 2:50.46 | 50627 | 63422
5 | 14:05.48 | 4:27.02 | 63423 | 83449
6 | 18:32.50 | 3:35.41 | 83450 | 99615
7 | 22:08.16 | 5:34.65 | 99616 | 124730
8 | 27:43.06 | 2:44.46 | 124731 | 137076
9 | 30:27.52 | 5:22.31 | 137077 | 161257
10 | 35:50.08 | 5:00.58 | 161258 | 183815
11 | 40:50.66 | 4:03.51 | 183816 | 202091
12 | 44:54.42 | 3:53.01 | 202092 | 219567
13 | 48:47.43 | 4:33.46 | 219568 | 240088
14 | 53:21.14 | 3:46.61 | 240089 | 257099
15 | 57:08.00 | 5:36.28 | 257100 | 282327
Range status and errors
Selected range
Filename D:\ilко\The Agonist - Five (Japan).wav
Peak level 98.8 %
Extraction speed 4.2 X
Range quality 100.0 %
Test CRC 5D9C06FC
Copy CRC 5D9C06FC
Copy OK
No errors occurred
AccurateRip summary
Track 1 not present in database
Track 2 not present in database
Track 3 not present in database
Track 4 not present in database
Track 5 not present in database
Track 6 not present in database
Track 7 not present in database
Track 8 not present in database
Track 9 not present in database
Track 10 not present in database
Track 11 not present in database
Track 12 not present in database
Track 13 not present in database
Track 14 not present in database
Track 15 not present in database
None of the tracks are present in the AccurateRip database
End of status report
---- CUETools DB Plugin V2.1.6
[CTDB TOCID: b2SrfG6KdpcCk8CsNdXXCKxPZC0-] disk not present in database
Submit result: b2SrfG6KdpcCk8CsNdXXCKxPZC0- has been uploaded
==== Log checksum 67060BD0E3FC8BD6BEFD9310CC906EFCA35DFB48C2128E9AA72FE6846751921D ====
-
REM GENRE Melodic Death Metal/Metalcore
REM DATE 2016
REM COMMENT 2016, Japan, First Press, DR8
PERFORMER "The Agonist"
TITLE "Five"
FILE "The Agonist - Five.flac" WAVE
TRACK 01 AUDIO
TITLE "The Moment"
INDEX 01 00:00:00
TRACK 02 AUDIO
TITLE "The Chain"
INDEX 01 04:14:01
TRACK 03 AUDIO
TITLE "The Anchor And The Sail"
INDEX 01 07:26:01
TRACK 04 AUDIO
TITLE "The Game"
INDEX 01 11:15:02
TRACK 05 AUDIO
TITLE "The Ocean"
INDEX 01 14:05:48
TRACK 06 AUDIO
TITLE "The Hunt"
INDEX 01 18:32:50
TRACK 07 AUDIO
TITLE "The Raven Eyes"
INDEX 01 22:08:16
TRACK 08 AUDIO
TITLE "The Wake"
INDEX 01 27:43:06
TRACK 09 AUDIO
TITLE "The Resurrection"
INDEX 01 30:27:52
TRACK 10 AUDIO
TITLE "The Villain"
INDEX 01 35:50:08
TRACK 11 AUDIO
TITLE "The Pursuit Of Emptiness"
INDEX 01 40:50:66
TRACK 12 AUDIO
TITLE "The Man Who Fell To Earth"
INDEX 01 44:54:42
TRACK 13 AUDIO
TITLE "The Trial"
INDEX 01 48:47:43
TRACK 14 AUDIO
TITLE "Take Me To The Church (Cover) (Bonus Track)"
INDEX 01 53:21:14
TRACK 15 AUDIO
TITLE "The Raven Eyes (Acoustic) (Bonus Track)"
INDEX 00 57:06:01
INDEX 01 57:08:00
-
-
--Работаю не за Спасибо , а за ИДЕЮ.--
Download / Скачать

Хотите скачать бесплатно? Зарегистрируйтесь на сайте (ссылка на регистрацию). Pirat.ca - самый быстрый торрент трекер в рунете!

Как скачивать  ·   Что такое торрент  ·   Рейтинг и ограничения

BilG

Корсар

Пост 16-Мар-2017 17:23 (спустя 5 месяцев 8 дней)

[Q] 

Спасибо! Успех всегда!

_________________
[Профиль]  [ЛС] 
Показать сообщения:    
Ответить на тему

Текущее время: Сегодня 12:29

Часовой пояс: GMT + 4



Вы не можете начинать темы
Вы не можете отвечать на сообщения
Вы не можете редактировать свои сообщения
Вы не можете удалять свои сообщения
Вы не можете голосовать в опросах
Вы не можете прикреплять файлы к сообщениям
Вы не можете скачивать файлы

▼ Вниз