Уважаемый Гость!
Вы можете поддержать проект и зарегистрироваться у наших партнеров - онлайн-стратегия MyLands. При регистрации в игре Вы получите код, который сможете активировать после регистрации на pirat.ca и получить 1000 дублонов.

Ваш код:
d49a3625bbdee1b82b14274f97c375f8b2b2ee4c
 
     

(Power Metal) Sonata Arctica - The Ninth Hour(Japanese Edition) - 2016 [FLAC, image+.cue, lossless]

Ответить на тему
 
Автор
Сообщение

Пост 13-Окт-2016 00:41

[Q] 

Дядя Вова

Гроза морей

-Sonata Arctica - The Ninth Hour(Japanese Edition)-- Год издания: 2016
Страна: Kemi, Lapland, Finland
Жанр: Power Metal
Продолжительность: 01:06:26-Лейбл издания: Avalon
Тип альбома: Master
Страна-выпуска диска: Octomber 5th, 2016, Japan
Номер по каталогу: MICP-11314
Формат: FLAC
Битрейт аудио: lossless
Тип рипа: image+.cue
Наличие сканов в содержимом раздачи: да-
01. Closer To An Animal
02. Life
03. Fairytale
04. We Are What We Are
05. Till Death's Done Us Apart
06. Among the Shooting Stars
07. Rise a Night
08. Fly, Navigate, Communicate
09. Candle Lawns
10. The Elephant
11. White Pearl, Black Oceans - Part II, "By The Grace Of The Ocean"
12. On The Faultline (Closure To An Animal)
-
Exact Audio Copy V1.3 from 2. September 2016
EAC extraction logfile from 10. October 2016, 15:12
Sonata Arctica / The Ninth Hour (Japan)
Used drive : ATAPI iHAS122 W Adapter: 2 ID: 0
Read mode : Secure
Utilize accurate stream : Yes
Defeat audio cache : Yes
Make use of C2 pointers : No
Read offset correction : 48
Overread into Lead-In and Lead-Out : No
Fill up missing offset samples with silence : Yes
Delete leading and trailing silent blocks : No
Null samples used in CRC calculations : Yes
Used interface : Installed external ASPI interface
Used output format : User Defined Encoder
Selected bitrate : 1024 kBit/s
Quality : High
Add ID3 tag : No
Command line compressor : C:\Program Files\FLAC\flac.exe
Additional command line options : -V -8 -T "Date=%year%" -T "Genre=%genre%" -T"COMMENT=Ripped by Ilijan" -8 -V %source%
TOC of the extracted CD
Track | Start | Length | Start sector | End sector
---------------------------------------------------------
1 | 0:00.13 | 5:22.66 | 13 | 24228
2 | 5:23.04 | 5:06.67 | 24229 | 47245
3 | 10:29.71 | 6:38.56 | 47246 | 77151
4 | 17:08.52 | 5:25.08 | 77152 | 101534
5 | 22:33.60 | 6:06.07 | 101535 | 128991
6 | 28:39.67 | 4:10.57 | 128992 | 147798
7 | 32:50.49 | 4:28.16 | 147799 | 167914
8 | 37:18.65 | 4:27.73 | 167915 | 188012
9 | 41:46.63 | 4:36.20 | 188013 | 208732
10 | 46:23.08 | 4:13.06 | 208733 | 227713
11 | 50:36.14 | 10:16.52 | 227714 | 273965
12 | 60:52.66 | 5:33.26 | 273966 | 298966
Range status and errors
Selected range
Filename D:\ilко\Sonata Arctica - The Ninth Hour (Japan).wav
Peak level 100.0 %
Extraction speed 4.4 X
Range quality 100.0 %
Test CRC B8718979
Copy CRC B8718979
Copy OK
No errors occurred
AccurateRip summary
Track 1 not present in database
Track 2 not present in database
Track 3 not present in database
Track 4 not present in database
Track 5 not present in database
Track 6 not present in database
Track 7 not present in database
Track 8 not present in database
Track 9 not present in database
Track 10 not present in database
Track 11 not present in database
Track 12 not present in database
None of the tracks are present in the AccurateRip database
End of status report
---- CUETools DB Plugin V2.1.6
[CTDB TOCID: XASA.pv4UczGkgS67bXM_OOnYRM-] found
Submit result: XASA.pv4UczGkgS67bXM_OOnYRM- has been confirmed
Track | CTDB Status
1 | (2/2) Accurately ripped
2 | (2/2) Accurately ripped
3 | (2/2) Accurately ripped
4 | (2/2) Accurately ripped
5 | (2/2) Accurately ripped
6 | (2/2) Accurately ripped
7 | (2/2) Accurately ripped
8 | (2/2) Accurately ripped
9 | (2/2) Accurately ripped
10 | (2/2) Accurately ripped
11 | (2/2) Accurately ripped
12 | (2/2) Accurately ripped
==== Log checksum 0AFFE96CE5A7FF11B81B7A755857D1D8BC933E89876327875EE3C9681A5223FB ====
-
REM GENRE Power Metal
REM DATE 2016
REM COMMENT 2016, Japan, First Press, DR6
PERFORMER "Sonata Arctica"
TITLE "The Ninth Hour"
FILE "Sonata Arctica - The Ninth Hour.flac" WAVE
TRACK 01 AUDIO
TITLE "Closer To An Animal"
INDEX 00 00:00:00
INDEX 01 00:00:13
TRACK 02 AUDIO
TITLE "Life"
INDEX 01 05:23:04
TRACK 03 AUDIO
TITLE "Fairytale"
INDEX 01 10:29:71
TRACK 04 AUDIO
TITLE "We Are What We Are"
INDEX 01 17:08:52
TRACK 05 AUDIO
TITLE "Till Death's Done Us Apart"
INDEX 01 22:33:60
TRACK 06 AUDIO
TITLE "Among The Shooting Stars"
INDEX 01 28:39:67
TRACK 07 AUDIO
TITLE "Rise A Night"
INDEX 01 32:50:49
TRACK 08 AUDIO
TITLE "Fly, Navigate, Communicate"
INDEX 01 37:18:65
TRACK 09 AUDIO
TITLE "Candle Lawns"
INDEX 01 41:46:63
TRACK 10 AUDIO
TITLE "The Elephant (Bonus Track)"
INDEX 01 46:23:08
TRACK 11 AUDIO
TITLE "White Pearl, Black Oceans - Part II, 'By The Grace Of The Ocean'"
INDEX 01 50:36:14
TRACK 12 AUDIO
TITLE "On The Faultline (Closure To An Animal)"
INDEX 01 60:52:66
-
-
--Работаю не за Спасибо , а за ИДЕЮ.--
Download / Скачать

Хотите скачать бесплатно? Зарегистрируйтесь на сайте (ссылка на регистрацию). Pirat.ca - самый быстрый торрент трекер в рунете!

Как скачивать  ·   Что такое торрент  ·   Рейтинг и ограничения

BilG

Корсар

Пост 16-Мар-2017 17:18 (спустя 5 месяцев 3 дня)

[Q] 

Благодарю за труд!

_________________
[Профиль]  [ЛС] 
Показать сообщения:    
Ответить на тему

Текущее время: Сегодня 19:44

Часовой пояс: GMT + 4



Вы не можете начинать темы
Вы не можете отвечать на сообщения
Вы не можете редактировать свои сообщения
Вы не можете удалять свои сообщения
Вы не можете голосовать в опросах
Вы не можете прикреплять файлы к сообщениям
Вы не можете скачивать файлы

▼ Вниз