Уважаемый Гость!
Вы можете поддержать проект и зарегистрироваться у наших партнеров - онлайн-стратегия MyLands. При регистрации в игре Вы получите код, который сможете активировать после регистрации на pirat.ca и получить 1000 дублонов.

Ваш код:
bf76b4fde44c7189cfb4d32d5b204facc1d6d492
 
     

(Death Metal, Doom Metal) Asphyx - Incoming Death - 2016 [FLAC, image+.cue, lossless]

Ответить на тему
 
Автор
Сообщение

Пост 17-Окт-2016 01:37

[Q] 

Дядя Вова

Гроза морей

-Asphyx - Incoming Death-- Год издания: 2016
Страна: Netherlands
Жанр: Death Metal, Doom Metal
Продолжительность: 00:54:57-Лейбл издания: Century Media
Тип альбома: Master
Страна-выпуска диска: 2016 Europe
Номер по каталогу: [88985355362]
Формат: FLAC
Битрейт аудио: lossless
Тип рипа: image+.cue
Наличие сканов в содержимом раздачи: да-
01. Candiru
02. Division Brandenburg
03. Wardroid
04. The Feeder
05. It Came from the Skies
06. The Grand Denial
07. Incoming Death
08. Forerunners of the Apocalypse
09. Subterra Incognita
10. Wildland Fire
11. Death: the Only Immortal
12. Servants of the Warsmen (Winter cover)*
13. Master (Master cover)*
* bonus tracks
-
Exact Audio Copy V1.0 beta 3 from 29. August 2011
EAC extraction logfile from 13. October 2016, 17:05
Asphyx / Incoming Death (Ltd. Ed.)
Used drive : HL-DT-STDVD-RAM GH15L Adapter: 4 ID: 0
Read mode : Secure
Utilize accurate stream : Yes
Defeat audio cache : Yes
Make use of C2 pointers : No
Read offset correction : 667
Overread into Lead-In and Lead-Out : No
Fill up missing offset samples with silence : Yes
Delete leading and trailing silent blocks : No
Null samples used in CRC calculations : Yes
Used interface : Native Win32 interface for Win NT & 2000
Used output format : User Defined Encoder
Selected bitrate : 896 kBit/s
Quality : High
Add ID3 tag : Yes
Command line compressor : C:\Program Files (x86)\Exact Audio Copy\Flac\flac.exe
Additional command line options : -6 -V -T "ARTIST=%artist%" -T "TITLE=%title%" -T "ALBUM=%albumtitle%" -T "DATE=%year%" -T "TRACKNUMBER=%tracknr%" -T "GENRE=%genre%" -T "COMMENT=%comment%" -T "BAND=%albuminterpret%" -T "ALBUMARTIST=%albuminterpret%" -T "COMPOSER=%composer%" %haslyrics%--tag-from-file=LYRICS="%lyricsfile%"%haslyrics% -T "DISCNUMBER=%cdnumber%" -T "TOTALDISCS=%totalcds%" -T "TOTALTRACKS=%numtracks%" %hascover%--picture="%coverfile%"%hascover% %source% -o %dest%
TOC of the extracted CD
Track | Start | Length | Start sector | End sector
---------------------------------------------------------
1 | 0:00.00 | 2:40.14 | 0 | 12013
2 | 2:40.14 | 3:05.09 | 12014 | 25897
3 | 5:45.23 | 4:40.42 | 25898 | 46939
4 | 10:25.65 | 4:06.64 | 46940 | 65453
5 | 14:32.54 | 3:29.62 | 65454 | 81190
6 | 18:02.41 | 7:08.21 | 81191 | 113311
7 | 25:10.62 | 1:56.18 | 113312 | 122029
8 | 27:07.05 | 3:42.70 | 122030 | 138749
9 | 30:50.00 | 5:06.71 | 138750 | 161770
10 | 35:56.71 | 3:41.37 | 161771 | 178382
11 | 39:38.33 | 8:09.52 | 178383 | 215109
12 | 47:48.10 | 4:05.35 | 215110 | 233519
13 | 51:53.45 | 3:03.31 | 233520 | 247275
Range status and errors
Selected range
Filename C:\Users\DAREK\Downloads\Desktop\ASPHYX [2016] [CD] Incoming Death (Ltd.Ed.)\Asphyx - Incoming Death (Ltd. Ed.).wav
Peak level 97.7 %
Extraction speed 6.3 X
Range quality 100.0 %
Test CRC D53BA812
Copy CRC D53BA812
Copy OK
No errors occurred
AccurateRip summary
Track 1 accurately ripped (confidence 1) [278533F6] (AR v2)
Track 2 accurately ripped (confidence 1) [824BC962] (AR v2)
Track 3 accurately ripped (confidence 1) [78D29D2C] (AR v2)
Track 4 accurately ripped (confidence 1) [866BCF14] (AR v2)
Track 5 accurately ripped (confidence 1) [4F68E0B5] (AR v2)
Track 6 accurately ripped (confidence 1) [9B9E4D71] (AR v2)
Track 7 accurately ripped (confidence 1) [ECABEAB0] (AR v2)
Track 8 accurately ripped (confidence 1) [4625002E] (AR v2)
Track 9 accurately ripped (confidence 1) [CF333623] (AR v2)
Track 10 accurately ripped (confidence 1) [0542721C] (AR v2)
Track 11 accurately ripped (confidence 1) [B6008238] (AR v2)
Track 12 accurately ripped (confidence 1) [765423FC] (AR v2)
Track 13 accurately ripped (confidence 1) [0AE773B1] (AR v2)
All tracks accurately ripped
End of status report
-
REM GENRE Death Metal
REM DATE 2016
REM DISCID AB0CE10D
REM COMMENT 2016 Europe
PERFORMER ""
TITLE "Incoming Death"
FILE "Asphyx - Incoming Death.flac" WAVE
TRACK 01 AUDIO
TITLE "Candiru"
PERFORMER "Asphyx"
INDEX 01 00:00:00
TRACK 02 AUDIO
TITLE "Divison Brandenburg"
PERFORMER "Asphyx"
INDEX 01 02:40:14
TRACK 03 AUDIO
TITLE "Wardroid"
PERFORMER "Asphyx"
INDEX 01 05:45:23
TRACK 04 AUDIO
TITLE "The Feeder"
PERFORMER "Asphyx"
INDEX 01 10:25:65
TRACK 05 AUDIO
TITLE "It Came from the Skies"
PERFORMER "Asphyx"
INDEX 01 14:32:54
TRACK 06 AUDIO
TITLE "The Grand Denial"
PERFORMER "Asphyx"
INDEX 01 18:02:41
TRACK 07 AUDIO
TITLE "Incoming Death"
PERFORMER "Asphyx"
INDEX 01 25:10:62
TRACK 08 AUDIO
TITLE "Forerunners of the Apocalypse"
PERFORMER "Asphyx"
INDEX 01 27:07:05
TRACK 09 AUDIO
TITLE "Subterra Incognita"
PERFORMER "Asphyx"
INDEX 01 30:50:00
TRACK 10 AUDIO
TITLE "Wildland Fire"
PERFORMER "Asphyx"
INDEX 01 35:56:71
TRACK 11 AUDIO
TITLE "Death: The Only Immortal"
PERFORMER "Asphyx"
INDEX 01 39:38:33
TRACK 12 AUDIO
TITLE "Servants of the Warsmen (Winter Cover)"
PERFORMER "Asphyx"
INDEX 01 47:48:10
TRACK 13 AUDIO
TITLE "Master (Master Cover)"
PERFORMER "Asphyx"
INDEX 01 51:53:45
-
-
--Работаю не за Спасибо , а за ИДЕЮ.--
Download / Скачать

Хотите скачать бесплатно? Зарегистрируйтесь на сайте (ссылка на регистрацию). Pirat.ca - самый быстрый торрент трекер в рунете!

Как скачивать  ·   Что такое торрент  ·   Рейтинг и ограничения

Пост 18-Окт-2016 14:21 (спустя 1 день 12 часов)

Топик был перенесен из форума Rock в форум Metal
Ворон
 

BilG

Корсар

Пост 15-Мар-2017 16:48 (спустя 4 месяца 29 дней)

[Q] 

Сердечно благодарю !

_________________
[Профиль]  [ЛС] 
Показать сообщения:    
Ответить на тему

Текущее время: Сегодня 12:17

Часовой пояс: GMT + 4



Вы не можете начинать темы
Вы не можете отвечать на сообщения
Вы не можете редактировать свои сообщения
Вы не можете удалять свои сообщения
Вы не можете голосовать в опросах
Вы не можете прикреплять файлы к сообщениям
Вы не можете скачивать файлы

▼ Вниз