Уважаемый Гость!
Вы можете поддержать проект и зарегистрироваться у наших партнеров - онлайн-стратегия MyLands. При регистрации в игре Вы получите код, который сможете активировать после регистрации на pirat.ca и получить 1000 дублонов.

Ваш код:
1b8effbb2d91248629d5897a85d0d1c4a4c433f0
 
     

(Heavy Metal) Herman Frank - The Devil Rides Out-(Japanese Edition) - 2016 [FLAC, image+.cue, lossless]

Ответить на тему
 
Автор
Сообщение

Пост 03-Ноя-2016 22:39

[Q] 

Дядя Вова

Гроза морей

-Herman Frank - The Devil Rides Out - (Japanese Edition)-- Год издания: 2016
Страна: Germany
Жанр: Heavy Metal
Продолжительность: 00:57:54-Лейбл издания: King Record Co., Ltd
Тип альбома: Remaster
Страна-выпуска диска: 26 Oct 2016 Japan
Номер по каталогу: [KICP-1816]
Формат: FLAC
Битрейт аудио: lossless
Тип рипа: image+.cue
Наличие сканов в содержимом раздачи: да-
01. Running Back
02. Shout
03. Can't Take It
04. No Tears in Heaven
05. Ballhog Zone
06. Run Boy Run
07. Thunder of Madness
08. License to Kill
09. Stone Cold
10. Dead or Alive
11. Run for Cover
12. I Want It All
13. Forever (Bonus Track)
-
Exact Audio Copy V1.3 from 2. September 2016
EAC extraction logfile from 2. November 2016, 11:12
Herman Frank / The Devil Rides Out (Japan)
Used drive : ATAPI iHAS122 W Adapter: 2 ID: 0
Read mode : Secure
Utilize accurate stream : Yes
Defeat audio cache : Yes
Make use of C2 pointers : No
Read offset correction : 48
Overread into Lead-In and Lead-Out : No
Fill up missing offset samples with silence : Yes
Delete leading and trailing silent blocks : No
Null samples used in CRC calculations : Yes
Used interface : Installed external ASPI interface
Used output format : User Defined Encoder
Selected bitrate : 1024 kBit/s
Quality : High
Add ID3 tag : No
Command line compressor : C:\Program Files\FLAC\flac.exe
Additional command line options : -V -8 -T "Date=%year%" -T "Genre=%genre%" -T"COMMENT=Ripped by Ilijan" -8 -V %source%
TOC of the extracted CD
Track | Start | Length | Start sector | End sector
---------------------------------------------------------
1 | 0:00.00 | 4:49.07 | 0 | 21681
2 | 4:49.07 | 4:05.03 | 21682 | 40059
3 | 8:54.10 | 4:03.31 | 40060 | 58315
4 | 12:57.41 | 3:37.49 | 58316 | 74639
5 | 16:35.15 | 4:32.11 | 74640 | 95050
6 | 21:07.26 | 4:51.21 | 95051 | 116896
7 | 25:58.47 | 3:52.05 | 116897 | 134301
8 | 29:50.52 | 4:47.01 | 134302 | 155827
9 | 34:37.53 | 5:11.00 | 155828 | 179152
10 | 39:48.53 | 4:08.18 | 179153 | 197770
11 | 43:56.71 | 3:47.07 | 197771 | 214802
12 | 47:44.03 | 4:19.72 | 214803 | 234299
13 | 52:04.00 | 5:50.15 | 234300 | 260564
Range status and errors
Selected range
Filename D:\ilко\Herman Frank - The Devil Rides Out (Japan).wav
Peak level 97.7 %
Extraction speed 3.9 X
Range quality 100.0 %
Test CRC D3EE8DAA
Copy CRC D3EE8DAA
Copy OK
No errors occurred
AccurateRip summary
Track 1 not present in database
Track 2 not present in database
Track 3 not present in database
Track 4 not present in database
Track 5 not present in database
Track 6 not present in database
Track 7 not present in database
Track 8 not present in database
Track 9 not present in database
Track 10 not present in database
Track 11 not present in database
Track 12 not present in database
Track 13 not present in database
None of the tracks are present in the AccurateRip database
End of status report
---- CUETools DB Plugin V2.1.6
[CTDB TOCID: MLlRYx6NQfwZWtHh6BjDmGRHZvA-] disk not present in database
Submit result: MLlRYx6NQfwZWtHh6BjDmGRHZvA- has been uploaded
==== Log checksum 18975E934DE1DF10253FF06452D10D25EC302E4F965C9C040114BAFE16E53240 ====
-
REM GENRE Heavy Metal
REM DATE 2016
REM DISCID D20D920D
REM COMMENT 26 Oct 2016 Japan
PERFORMER "Herman Frank"
TITLE "The Devil Rides Out (Japan)"
FILE "Herman Frank - The Devil Rides Out (Japan).flac" WAVE
TRACK 01 AUDIO
TITLE "Running Back"
INDEX 01 00:00:00
TRACK 02 AUDIO
TITLE "Shout"
INDEX 01 04:49:07
TRACK 03 AUDIO
TITLE "Can't Take It"
INDEX 01 08:54:10
TRACK 04 AUDIO
TITLE "No Tears In Heaven"
INDEX 01 12:57:41
TRACK 05 AUDIO
TITLE "Ballhog Zone"
INDEX 00 16:33:71
INDEX 01 16:35:15
TRACK 06 AUDIO
TITLE "Run Boy Run"
INDEX 01 21:07:26
TRACK 07 AUDIO
TITLE "Thunder Of Madness"
INDEX 01 25:58:47
TRACK 08 AUDIO
TITLE "License To Kill"
INDEX 01 29:50:52
TRACK 09 AUDIO
TITLE "Stone Cold"
INDEX 01 34:37:53
TRACK 10 AUDIO
TITLE "Dead Or Avive"
INDEX 00 39:47:18
INDEX 01 39:48:53
TRACK 11 AUDIO
TITLE "Run For Cover"
INDEX 01 43:56:71
TRACK 12 AUDIO
TITLE "I Want It All"
INDEX 01 47:44:03
TRACK 13 AUDIO
TITLE "Forever (Bonus Track)"
INDEX 00 52:03:17
INDEX 01 52:04:00
-
--Работаю не за Спасибо , а за ИДЕЮ.--
Download / Скачать

Хотите скачать бесплатно? Зарегистрируйтесь на сайте (ссылка на регистрацию). Pirat.ca - самый быстрый торрент трекер в рунете!

Как скачивать  ·   Что такое торрент  ·   Рейтинг и ограничения

Показать сообщения:    
Ответить на тему

Текущее время: Сегодня 02:57

Часовой пояс: GMT + 4



Вы не можете начинать темы
Вы не можете отвечать на сообщения
Вы не можете редактировать свои сообщения
Вы не можете удалять свои сообщения
Вы не можете голосовать в опросах
Вы не можете прикреплять файлы к сообщениям
Вы не можете скачивать файлы

▼ Вниз