Уважаемый Гость!
Вы можете поддержать проект и зарегистрироваться у наших партнеров - онлайн-стратегия MyLands. При регистрации в игре Вы получите код, который сможете активировать после регистрации на pirat.ca и получить 1000 дублонов.

Ваш код:
1b8effbb2d91248629d5897a85d0d1c4a4c433f0
 
     

(HeavyMetal, Power Metal) Civil War - The Last Full Measure - (Limited Edition) - 2016 [FLAC, image+.cue, lossless]

Ответить на тему
 
Автор
Сообщение

Пост 04-Ноя-2016 20:44

[Q] 

Дядя Вова

Гроза морей

-Civil War - The Last Full Measure - (Limited Edition)-- Год издания: 2016
Страна: Sweden
Жанр: HeavyMetal, Power Metal
Продолжительность: 00:57:08-Лейбл издания: Napalm Records
Тип альбома: Master
Страна-выпуска диска: November 4th, 2016, Austria
Номер по каталогу: NPR 689 DP
Формат: FLAC
Битрейт аудио: lossless
Тип рипа: image+.cue
Наличие сканов в содержимом раздачи: да-
01. Road To Victory
02. Deliverance
03. Savannah
04. Tombstone
05. America
06. A Tale That Never Should Be Told
07. Gangs Of New York
08. Gladiator
09. People Of The Abyss
10. The Last Full Measure
11. Strike Hard Strike Sure (Bonus Track)
12. Aftermath (Bonus Track)
-
Exact Audio Copy V1.3 from 2. September 2016
EAC extraction logfile from 3. November 2016, 15:13
Civil War / The Last Full Measure (Ltd. Ed.)
Used drive : ATAPI iHAS122 W Adapter: 2 ID: 0
Read mode : Secure
Utilize accurate stream : Yes
Defeat audio cache : Yes
Make use of C2 pointers : No
Read offset correction : 48
Overread into Lead-In and Lead-Out : No
Fill up missing offset samples with silence : Yes
Delete leading and trailing silent blocks : No
Null samples used in CRC calculations : Yes
Used interface : Installed external ASPI interface
Used output format : User Defined Encoder
Selected bitrate : 1024 kBit/s
Quality : High
Add ID3 tag : No
Command line compressor : C:\Program Files\FLAC\flac.exe
Additional command line options : -V -8 -T "Date=%year%" -T "Genre=%genre%" -T"COMMENT=Ripped by Ilijan" -8 -V %source%
TOC of the extracted CD
Track | Start | Length | Start sector | End sector
---------------------------------------------------------
1 | 0:00.00 | 4:50.54 | 0 | 21803
2 | 4:50.54 | 5:24.34 | 21804 | 46137
3 | 10:15.13 | 4:14.19 | 46138 | 65206
4 | 14:29.32 | 3:20.46 | 65207 | 80252
5 | 17:50.03 | 5:33.55 | 80253 | 105282
6 | 23:23.58 | 6:14.28 | 105283 | 133360
7 | 29:38.11 | 4:13.14 | 133361 | 152349
8 | 33:51.25 | 3:29.35 | 152350 | 168059
9 | 37:20.60 | 4:12.26 | 168060 | 186985
10 | 41:33.11 | 6:33.69 | 186986 | 216529
11 | 48:07.05 | 3:57.53 | 216530 | 234357
12 | 52:04.58 | 5:02.64 | 234358 | 257071
Range status and errors
Selected range
Filename D:\ilко\Civil War - The Last Full Measure (Ltd. Ed.).wav
Peak level 100.0 %
Extraction speed 3.2 X
Range quality 100.0 %
Test CRC DDA21D5A
Copy CRC DDA21D5A
Copy OK
No errors occurred
AccurateRip summary
Track 1 not present in database
Track 2 not present in database
Track 3 not present in database
Track 4 not present in database
Track 5 not present in database
Track 6 not present in database
Track 7 not present in database
Track 8 not present in database
Track 9 not present in database
Track 10 not present in database
Track 11 not present in database
Track 12 not present in database
None of the tracks are present in the AccurateRip database
End of status report
---- CUETools DB Plugin V2.1.6
[CTDB TOCID: 3WFFCHS.4yJKvvqkeaOu3FPdavQ-] disk not present in database
Submit result: 3WFFCHS.4yJKvvqkeaOu3FPdavQ- has been uploaded
==== Log checksum 74B3AC54165DA926E2448D4ED63A84834041B5880BACDD4E7BB6F2FAEDA5CAD6 ====
-
REM GENRE Heavy/Power Metal
REM DATE 2016
REM COMMENT 2016, First Press, Limited Edition, Digipack, DR5
PERFORMER "Civil War"
TITLE "The Last Full Measure"
FILE "Civil War - The Last Full Measure.flac" WAVE
TRACK 01 AUDIO
TITLE "Road To Victory"
INDEX 01 00:00:00
TRACK 02 AUDIO
TITLE "Deliverance"
INDEX 00 04:49:54
INDEX 01 04:50:54
TRACK 03 AUDIO
TITLE "Savannah"
INDEX 00 10:14:13
INDEX 01 10:15:13
TRACK 04 AUDIO
TITLE "Tombstone"
INDEX 00 14:28:57
INDEX 01 14:29:32
TRACK 05 AUDIO
TITLE "America"
INDEX 00 17:49:03
INDEX 01 17:50:03
TRACK 06 AUDIO
TITLE "Tale That Never Should Be Told"
INDEX 00 23:20:58
INDEX 01 23:23:58
TRACK 07 AUDIO
TITLE "Gangs Of New York"
INDEX 00 29:36:11
INDEX 01 29:38:11
TRACK 08 AUDIO
TITLE "Gladiator"
INDEX 00 33:50:60
INDEX 01 33:51:25
TRACK 09 AUDIO
TITLE "People Of The Abyss"
INDEX 00 37:20:40
INDEX 01 37:20:60
TRACK 10 AUDIO
TITLE "The Last Full Measure"
INDEX 00 41:32:11
INDEX 01 41:33:11
TRACK 11 AUDIO
TITLE "Strike Hard, Strike Sure (Bonus Track)"
INDEX 00 48:06:30
INDEX 01 48:07:05
TRACK 12 AUDIO
TITLE "Aftermath (Bonus Track)"
INDEX 00 52:03:58
INDEX 01 52:04:58
-
-
--Работаю не за Спасибо , а за ИДЕЮ.--
Download / Скачать

Хотите скачать бесплатно? Зарегистрируйтесь на сайте (ссылка на регистрацию). Pirat.ca - самый быстрый торрент трекер в рунете!

Как скачивать  ·   Что такое торрент  ·   Рейтинг и ограничения

Показать сообщения:    
Ответить на тему

Текущее время: Сегодня 02:59

Часовой пояс: GMT + 4



Вы не можете начинать темы
Вы не можете отвечать на сообщения
Вы не можете редактировать свои сообщения
Вы не можете удалять свои сообщения
Вы не можете голосовать в опросах
Вы не можете прикреплять файлы к сообщениям
Вы не можете скачивать файлы

▼ Вниз