Уважаемый Гость!
Вы можете поддержать проект и зарегистрироваться у наших партнеров - онлайн-стратегия MyLands. При регистрации в игре Вы получите код, который сможете активировать после регистрации на pirat.ca и получить 1000 дублонов.

Ваш код:
bf76b4fde44c7189cfb4d32d5b204facc1d6d492
 
     

(Heavy Metal, Power Metal) HammerFall - Built To Last-(Limited Edition) - 2016 [FLAC, image+.cue, lossless]

Ответить на тему
 
Автор
Сообщение

Пост 04-Ноя-2016 21:24

[Q] 

Дядя Вова

Гроза морей

-HammerFall - Built To Last-(Limited Edition)-- Год издания: 2016
Страна: Sweden
Жанр: Heavy Metal, Power Metal
Продолжительность: 00:53:05-Лейбл издания: Napalm Records
Тип альбома: Master
Страна-выпуска диска: November 4th, 2016, Austria
Номер по каталогу: NPR 684 MB
Формат: FLAC
Битрейт аудио: lossless
Тип рипа: image+.cue
Наличие сканов в содержимом раздачи: да-
01. Bring It!
02. Hammer High
03. The Sacred Vow
04. Dethrone And Defy
05. Twilight Princess
06. Stormbreaker
07. Built To Last
08. The Star Of Home
09. New Breed
10. Second To None
-
Exact Audio Copy V1.3 from 2. September 2016
EAC extraction logfile from 3. November 2016, 15:49
HammerFall / Built To Last
Used drive : ATAPI iHAS122 W Adapter: 2 ID: 0
Read mode : Secure
Utilize accurate stream : Yes
Defeat audio cache : Yes
Make use of C2 pointers : No
Read offset correction : 48
Overread into Lead-In and Lead-Out : No
Fill up missing offset samples with silence : Yes
Delete leading and trailing silent blocks : No
Null samples used in CRC calculations : Yes
Used interface : Installed external ASPI interface
Used output format : User Defined Encoder
Selected bitrate : 1024 kBit/s
Quality : High
Add ID3 tag : No
Command line compressor : C:\Program Files\FLAC\flac.exe
Additional command line options : -V -8 -T "Date=%year%" -T "Genre=%genre%" -T"COMMENT=Ripped by Ilijan" -8 -V %source%
TOC of the extracted CD
Track | Start | Length | Start sector | End sector
---------------------------------------------------------
1 | 0:00.00 | 4:19.63 | 0 | 19487
2 | 4:19.63 | 4:38.69 | 19488 | 40406
3 | 8:58.57 | 4:12.56 | 40407 | 59362
4 | 13:11.38 | 5:11.34 | 59363 | 82721
5 | 18:22.72 | 5:04.73 | 82722 | 105594
6 | 23:27.70 | 4:52.45 | 105595 | 127539
7 | 28:20.40 | 3:53.45 | 127540 | 145059
8 | 32:14.10 | 4:48.05 | 145060 | 166664
9 | 37:02.15 | 5:03.30 | 166665 | 189419
10 | 42:05.45 | 5:29.51 | 189420 | 214145
Range status and errors
Selected range
Filename D:\ilко\HammerFall - Built To Last.wav
Peak level 99.7 %
Extraction speed 3.0 X
Range quality 100.0 %
Test CRC B24BF12A
Copy CRC B24BF12A
Copy OK
No errors occurred
AccurateRip summary
Track 1 not present in database
Track 2 not present in database
Track 3 not present in database
Track 4 not present in database
Track 5 not present in database
Track 6 not present in database
Track 7 not present in database
Track 8 not present in database
Track 9 not present in database
Track 10 not present in database
None of the tracks are present in the AccurateRip database
End of status report
---- CUETools DB Plugin V2.1.6
[CTDB TOCID: e.CfFXD6PgfYfkrL9Km_xWIKKXQ-] found
Submit result: e.CfFXD6PgfYfkrL9Km_xWIKKXQ- has been confirmed
Track | CTDB Status
1 | (1/1) Accurately ripped
2 | (1/1) Accurately ripped
3 | (1/1) Accurately ripped
4 | (1/1) Accurately ripped
5 | (1/1) Accurately ripped
6 | (1/1) Accurately ripped
7 | (1/1) Accurately ripped
8 | (1/1) Accurately ripped
9 | (1/1) Accurately ripped
10 | (1/1) Accurately ripped
==== Log checksum 5EB5CE164CD93F1DADF71804E7086B2A1B8E60116961E4F459F2887D2DA4225A ====
-
REM GENRE Heavy/Power Metal
REM DATE 2016
REM COMMENT 2016, Austria, First Press, Limited Edition, Mediabook, DR5
PERFORMER "HammerFall"
TITLE "Built To Last"
FILE "HammerFall - Built To Last.flac" WAVE
TRACK 01 AUDIO
TITLE "Bring It!"
INDEX 01 00:00:00
TRACK 02 AUDIO
TITLE "Hammer High"
INDEX 00 04:18:64
INDEX 01 04:19:63
TRACK 03 AUDIO
TITLE "The Sacred Vow"
INDEX 00 08:57:59
INDEX 01 08:58:57
TRACK 04 AUDIO
TITLE "Dethrone And Defy"
INDEX 00 13:10:39
INDEX 01 13:11:38
TRACK 05 AUDIO
TITLE "Twilight Princess"
INDEX 00 18:21:73
INDEX 01 18:22:72
TRACK 06 AUDIO
TITLE "Stormbreaker"
INDEX 00 23:26:71
INDEX 01 23:27:70
TRACK 07 AUDIO
TITLE "Built To Last"
INDEX 00 28:19:41
INDEX 01 28:20:40
TRACK 08 AUDIO
TITLE "The Star Of Home"
INDEX 00 32:13:11
INDEX 01 32:14:10
TRACK 09 AUDIO
TITLE "New Breed"
INDEX 00 37:01:16
INDEX 01 37:02:15
TRACK 10 AUDIO
TITLE "Second To None"
INDEX 00 42:04:46
INDEX 01 42:05:45
-
-
--Работаю не за Спасибо , а за ИДЕЮ.--
Download / Скачать

Хотите скачать бесплатно? Зарегистрируйтесь на сайте (ссылка на регистрацию). Pirat.ca - самый быстрый торрент трекер в рунете!

Как скачивать  ·   Что такое торрент  ·   Рейтинг и ограничения

Показать сообщения:    
Ответить на тему

Текущее время: Сегодня 12:19

Часовой пояс: GMT + 4



Вы не можете начинать темы
Вы не можете отвечать на сообщения
Вы не можете редактировать свои сообщения
Вы не можете удалять свои сообщения
Вы не можете голосовать в опросах
Вы не можете прикреплять файлы к сообщениям
Вы не можете скачивать файлы

▼ Вниз