Уважаемый Гость!
Вы можете поддержать проект и зарегистрироваться у наших партнеров - онлайн-стратегия MyLands. При регистрации в игре Вы получите код, который сможете активировать после регистрации на pirat.ca и получить 1000 дублонов.

Ваш код:
bf76b4fde44c7189cfb4d32d5b204facc1d6d492
 
     

(Symphonic Metal, Gothic Metal) Sirenia - Dim Days Of Dolor - (Limited Edition) 2016 [FLAC, image+.cue, lossless]

Ответить на тему
 
Автор
Сообщение

Пост 09-Ноя-2016 01:40

[Q] 

Дядя Вова

Гроза морей

-Sirenia - Dim Days Of Dolor-- Год издания: 2016
Страна: Stavanger, Norway
Жанр: Symphonic Metal, Gothic Metal
Продолжительность: 01:00:37-Лейбл издания: Napalm Records
Тип альбома: Master
Страна-выпуска диска: November 11th, 2016, Germany
Номер по каталогу: NPR 685 DP
Формат: FLAC
Битрейт аудио: lossless
Тип рипа: image+.cue
Наличие сканов в содержимом раздачи: да-
01. Goddess Of The Sea
02. Dim Days Of Dolor
03. The 12th Hour
04. Treasure N' Treason
05. Cloud Nine
06. Veil Of Winter
07. Ashes To Ashes
08. Elusive Sun
09. Playing With Fire
10. Fifth Column
11. Aeon's Embrace
12. Aeon's Embrace (French version) (Bonus Track)
-
Exact Audio Copy V1.3 from 2. September 2016
EAC extraction logfile from 3. November 2016, 19:10
Sirenia / Dim Days Of Dolor (Ltd. Ed.)
Used drive : ATAPI iHAS122 W Adapter: 2 ID: 0
Read mode : Secure
Utilize accurate stream : Yes
Defeat audio cache : Yes
Make use of C2 pointers : No
Read offset correction : 48
Overread into Lead-In and Lead-Out : No
Fill up missing offset samples with silence : Yes
Delete leading and trailing silent blocks : No
Null samples used in CRC calculations : Yes
Used interface : Installed external ASPI interface
Used output format : User Defined Encoder
Selected bitrate : 1024 kBit/s
Quality : High
Add ID3 tag : No
Command line compressor : C:\Program Files\FLAC\flac.exe
Additional command line options : -V -8 -T "Date=%year%" -T "Genre=%genre%" -T"COMMENT=Ripped by Ilijan" -8 -V %source%
TOC of the extracted CD
Track | Start | Length | Start sector | End sector
---------------------------------------------------------
1 | 0:00.00 | 4:41.64 | 0 | 21138
2 | 4:41.64 | 4:40.25 | 21139 | 42163
3 | 9:22.14 | 6:36.69 | 42164 | 71932
4 | 15:59.08 | 4:54.67 | 71933 | 94049
5 | 20:54.00 | 5:14.05 | 94050 | 117604
6 | 26:08.05 | 5:29.25 | 117605 | 142304
7 | 31:37.30 | 4:36.12 | 142305 | 163016
8 | 36:13.42 | 5:22.42 | 163017 | 187208
9 | 41:36.09 | 5:05.64 | 187209 | 210147
10 | 46:41.73 | 6:02.07 | 210148 | 237304
11 | 52:44.05 | 3:57.26 | 237305 | 255105
12 | 56:41.31 | 3:55.60 | 255106 | 272790
Range status and errors
Selected range
Filename D:\ilко\Sirenia - Dim Days Of Dolor (Ltd. Ed.).wav
Peak level 97.7 %
Extraction speed 3.2 X
Range quality 100.0 %
Test CRC E45C1577
Copy CRC E45C1577
Copy OK
No errors occurred
AccurateRip summary
Track 1 not present in database
Track 2 not present in database
Track 3 not present in database
Track 4 not present in database
Track 5 not present in database
Track 6 not present in database
Track 7 not present in database
Track 8 not present in database
Track 9 not present in database
Track 10 not present in database
Track 11 not present in database
Track 12 not present in database
None of the tracks are present in the AccurateRip database
End of status report
---- CUETools DB Plugin V2.1.6
[CTDB TOCID: okOJPeHc5ZmplutuZBkMP8ey1fU-] disk not present in database
Submit result: okOJPeHc5ZmplutuZBkMP8ey1fU- has been uploaded
==== Log checksum B66C6AF576D575066E78A1C98260B8EE3DB71EE5A8DC0C4A9A2ECD486D729467 ====
-
REM GENRE "Symphonic/Gothic Metal"
REM DATE 2016
REM COMMENT "2016, Germany, Limited Edition, Digipack, DR6"
PERFORMER "Sirenia"
TITLE "Dim Days Of Dolor"
FILE "Sirenia - Dim Days Of Dolor.flac" WAVE
TRACK 01 AUDIO
TITLE "Goddess Of The Sea"
PERFORMER "Sirenia"
INDEX 01 00:00:00
TRACK 02 AUDIO
TITLE "Dim Days Of Dolor"
PERFORMER "Sirenia"
INDEX 01 04:41:64
TRACK 03 AUDIO
TITLE "The 12th Hour"
PERFORMER "Sirenia"
INDEX 01 09:22:14
TRACK 04 AUDIO
TITLE "Treasure N' Treason"
PERFORMER "Sirenia"
INDEX 01 15:59:08
TRACK 05 AUDIO
TITLE "Cloud Nine"
PERFORMER "Sirenia"
INDEX 01 20:54:00
TRACK 06 AUDIO
TITLE "Veil Of Winter"
PERFORMER "Sirenia"
INDEX 01 26:08:05
TRACK 07 AUDIO
TITLE "Ashes To Ashes"
PERFORMER "Sirenia"
INDEX 01 31:37:30
TRACK 08 AUDIO
TITLE "Elusive Sun"
PERFORMER "Sirenia"
REM COMPOSER ""
INDEX 01 36:13:42
TRACK 09 AUDIO
TITLE "Playing With Fire"
PERFORMER "Sirenia"
INDEX 01 41:36:09
TRACK 10 AUDIO
TITLE "Fifth Column"
PERFORMER "Sirenia"
INDEX 01 46:41:73
TRACK 11 AUDIO
TITLE "Aeon's Embrace"
PERFORMER "Sirenia"
INDEX 01 52:44:05
TRACK 12 AUDIO
TITLE "Aeon's Embrace (French Version) (Bonus Track)"
PERFORMER "Sirenia"
INDEX 00 56:39:74
INDEX 01 56:41:31
-
-
--Работаю не за Спасибо , а за ИДЕЮ.--
Download / Скачать

Хотите скачать бесплатно? Зарегистрируйтесь на сайте (ссылка на регистрацию). Pirat.ca - самый быстрый торрент трекер в рунете!

Как скачивать  ·   Что такое торрент  ·   Рейтинг и ограничения

Пост 09-Ноя-2016 14:10 (спустя 12 часов)

Топик был перенесен из форума Rock (Трюм) в форум Metal
sergej644
 
Показать сообщения:    
Ответить на тему

Текущее время: Сегодня 12:38

Часовой пояс: GMT + 4



Вы не можете начинать темы
Вы не можете отвечать на сообщения
Вы не можете редактировать свои сообщения
Вы не можете удалять свои сообщения
Вы не можете голосовать в опросах
Вы не можете прикреплять файлы к сообщениям
Вы не можете скачивать файлы

▼ Вниз