Уважаемый Гость!
Вы можете поддержать проект и зарегистрироваться у наших партнеров - онлайн-стратегия MyLands. При регистрации в игре Вы получите код, который сможете активировать после регистрации на pirat.ca и получить 1000 дублонов.

Ваш код:
bf76b4fde44c7189cfb4d32d5b204facc1d6d492
 
     

(Melodic Death Metal, Pagan Metal) Nothgard - The Sinner's Sake - 2016 [FLAC, image+.cue, lossless]

Ответить на тему
 
Автор
Сообщение

Пост 09-Ноя-2016 02:07

[Q] 

Дядя Вова

Гроза морей

-Nothgard - The Sinner's Sake-- Год издания: 2016
Страна: Germany (Deggendorf, Bavaria)
Жанр: Melodic Death Metal, Pagan Metal
Продолжительность: 00:47:28-Лейбл издания: NoiseArt Records
Тип альбома: Master
Страна-выпуска диска: 23 Sep 2016 Europe
Номер по каталогу: [NARCD061DP]
Формат: FLAC
Битрейт аудио: lossless
Тип рипа: image+.cue
Наличие сканов в содержимом раздачи: да-
01. Glittering Shades (Intro)
02. From Lambs to Lions
03. The Sinner's Sake
04. Iron Sights
05. Death Unites
06. Shadow Play
07. Descendants of the Sun
08. Last Child Standing
09. Draining Veins
10. When Gods Cry
11. Sin Eater
-
Exact Audio Copy V1.3 from 2. September 2016
EAC extraction logfile from 3. November 2016, 19:39
Nothgard / The Sinner's Sake
Used drive : ATAPI iHAS122 W Adapter: 2 ID: 0
Read mode : Secure
Utilize accurate stream : Yes
Defeat audio cache : Yes
Make use of C2 pointers : No
Read offset correction : 48
Overread into Lead-In and Lead-Out : No
Fill up missing offset samples with silence : Yes
Delete leading and trailing silent blocks : No
Null samples used in CRC calculations : Yes
Used interface : Installed external ASPI interface
Used output format : User Defined Encoder
Selected bitrate : 1024 kBit/s
Quality : High
Add ID3 tag : No
Command line compressor : C:\Program Files\FLAC\flac.exe
Additional command line options : -V -8 -T "Date=%year%" -T "Genre=%genre%" -T"COMMENT=Ripped by Ilijan" -8 -V %source%
TOC of the extracted CD
Track | Start | Length | Start sector | End sector
---------------------------------------------------------
1 | 0:00.00 | 1:41.45 | 0 | 7619
2 | 1:41.45 | 5:12.68 | 7620 | 31087
3 | 6:54.38 | 4:37.00 | 31088 | 51862
4 | 11:31.38 | 4:16.00 | 51863 | 71062
5 | 15:47.38 | 4:33.37 | 71063 | 91574
6 | 20:21.00 | 5:20.38 | 91575 | 115612
7 | 25:41.38 | 4:42.37 | 115613 | 136799
8 | 30:24.00 | 4:00.00 | 136800 | 154799
9 | 34:24.00 | 4:40.00 | 154800 | 175799
10 | 39:04.00 | 4:22.00 | 175800 | 195449
11 | 43:26.00 | 4:02.00 | 195450 | 213599
Range status and errors
Selected range
Filename D:\ilко\Nothgard - The Sinner's Sake.wav
Peak level 97.1 %
Extraction speed 3.8 X
Range quality 100.0 %
Test CRC 3846FD5D
Copy CRC 3846FD5D
Copy OK
No errors occurred
AccurateRip summary
Track 1 not present in database
Track 2 not present in database
Track 3 not present in database
Track 4 not present in database
Track 5 not present in database
Track 6 not present in database
Track 7 not present in database
Track 8 not present in database
Track 9 not present in database
Track 10 not present in database
Track 11 not present in database
None of the tracks are present in the AccurateRip database
End of status report
---- CUETools DB Plugin V2.1.6
[CTDB TOCID: Xuer0Gs9FT1xnD6bopmYk3u65.E-] found
Submit result: Xuer0Gs9FT1xnD6bopmYk3u65.E- has been confirmed
Track | CTDB Status
1 | (7/7) Accurately ripped
2 | (7/7) Accurately ripped
3 | (7/7) Accurately ripped
4 | (7/7) Accurately ripped
5 | (7/7) Accurately ripped
6 | (7/7) Accurately ripped
7 | (7/7) Accurately ripped
8 | (7/7) Accurately ripped
9 | (7/7) Accurately ripped
10 | (7/7) Accurately ripped
11 | (7/7) Accurately ripped
==== Log checksum A2456CD0F6833E124BEABB45FB5F4313FF83621F08A9B32494AE59E26E8F1380 ====
-
REM GENRE Melodic Death Metal
REM DATE 2016
REM DISCID 8C0B200B
REM COMMENT 23 Sep 2016 Europe
PERFORMER "Nothgard"
TITLE "The Sinner's Sake"
FILE "Nothgard - The Sinner's Sake.flac" WAVE
TRACK 01 AUDIO
TITLE "Glittering Shades (Intro)"
INDEX 01 00:00:00
TRACK 02 AUDIO
TITLE "From Lambs to Lions"
INDEX 01 01:41:45
TRACK 03 AUDIO
TITLE "The Sinner's Sake"
INDEX 01 06:54:38
TRACK 04 AUDIO
TITLE "Iron Sights"
INDEX 01 11:31:38
TRACK 05 AUDIO
TITLE "Death Unites"
INDEX 01 15:47:38
TRACK 06 AUDIO
TITLE "Shadow Play"
INDEX 01 20:21:00
TRACK 07 AUDIO
TITLE "Descendants of the Sun"
INDEX 01 25:41:38
TRACK 08 AUDIO
TITLE "Last Child Standing"
INDEX 01 30:24:00
TRACK 09 AUDIO
TITLE "Draining Veins"
INDEX 01 34:24:00
TRACK 10 AUDIO
TITLE "When Gods Cry"
INDEX 01 39:04:00
TRACK 11 AUDIO
TITLE "Sin Eater"
INDEX 01 43:26:00
-
-
--Работаю не за Спасибо , а за ИДЕЮ.--
Download / Скачать

Хотите скачать бесплатно? Зарегистрируйтесь на сайте (ссылка на регистрацию). Pirat.ca - самый быстрый торрент трекер в рунете!

Как скачивать  ·   Что такое торрент  ·   Рейтинг и ограничения

Пост 09-Ноя-2016 14:09 (спустя 12 часов)

Топик был перенесен из форума Rock (Трюм) в форум Metal
sergej644
 
Показать сообщения:    
Ответить на тему

Текущее время: Сегодня 12:26

Часовой пояс: GMT + 4



Вы не можете начинать темы
Вы не можете отвечать на сообщения
Вы не можете редактировать свои сообщения
Вы не можете удалять свои сообщения
Вы не можете голосовать в опросах
Вы не можете прикреплять файлы к сообщениям
Вы не можете скачивать файлы

▼ Вниз