Уважаемый Гость!
Вы можете поддержать проект и зарегистрироваться у наших партнеров - онлайн-стратегия MyLands. При регистрации в игре Вы получите код, который сможете активировать после регистрации на pirat.ca и получить 1000 дублонов.

Ваш код:
1b8effbb2d91248629d5897a85d0d1c4a4c433f0
 
     

(Heavy Metal) Saxon - Let Me Feel Your Power (Live) (2CD) - 2016 [FLAC, image +.cue, lossless]

Ответить на тему
 
Автор
Сообщение

Пост 13-Ноя-2016 19:48

[Q] 

sergej644

-Saxon - Let Me Feel Your Power (2CD)--
Год издания: 2016
Страна: UK
Жанр: Heavy Metal
Продолжительность: 02:24:57-Лейбл издания: UDR Music
Страна-выпуска диска: Germany
Номер по каталогу: UDR049P06-Формат: FLAC
Битрейт аудио: Lossless
Тип рипа: image +.cue
Наличие сканов в содержимом раздачи: да
-

01.Battering Ram (Live In Munich)(4:41)
02.Motorcycle Man (Live In Munich)(3:33)
03.Sacrifice (Live In Munich)(4:09)
04.Destroyer (Live In Munich)(3:22)
05.Power And The Glory (Live In Munich)(5:02)
06.20000 Ft (Live In Munich)(3:25)
07.The Devil's Footprint (Live In Munich)(4:01)
08.Heavy Metal Thunder (Live In Munich)(2:55)
09.Queen Of Hearts (Live In Munich)(5:28)
10.Princess Of The Night (Live In Munich)(4:00)
11.Wheels Of Steel (Live In Munich)(6:46)
12.Denim And Leather (Live In Munich)(4:54)
13.Crusader (Live In Munich)(5:17)
14.Eye Of The Storm (Live In Brighton)(3:41)
15.Battalions Of Steel (Live In Brighton)(4:41)
16.Requiem (Live In Brighton)(5:04)

01.Motorcycle Man (Live In Chicago)(3:43)
02.This Town Rocks (Live In Chicago)(4:11)
03.Sacrifice (Live In Chicago)(3:56)
04.Power And The Glory (Live In Chicago)(4:52)
05.Solid Ball Of Rock (Live In Chicago)(5:43)
06.Dallas 1PM (Live In Chicago)(5:59)
07.Heavy Metal Thunder (Live In Chicago)(2:54)
08.Rock The Nations (Live In Chicago)(3:51)
09.The Eagle Has Landed (Live In Chicago)(7:20)
10.Wheels Of Steel (Live In Chicago)(5:41)
11.Backs To The Wall (Live In Chicago)(3:40)
12.Just Let Me Rock (Live In Chicago)(4:02)
13.Strong Arm Of The Law (Live In Chicago)(4:22)
14.747 (Strangers In The Night) (Live In Chicago)(4:52)
15.Princess Of The Night (Live In Chicago)(3:57)
16.Denim And Leather (Live In Chicago)(4:54)
-
Код:
Exact Audio Copy V1.3 from 2. September 2016
EAC extraction logfile from 10. November 2016, 20:05
Saxon / Let Me Feel Your Power (CD 1)
Used drive  : ATAPI   iHAS122   W   Adapter: 2  ID: 0
Read mode               : Secure
Utilize accurate stream : Yes
Defeat audio cache      : Yes
Make use of C2 pointers : No
Read offset correction                      : 48
Overread into Lead-In and Lead-Out          : No
Fill up missing offset samples with silence : Yes
Delete leading and trailing silent blocks   : No
Null samples used in CRC calculations       : Yes
Used interface                              : Installed external ASPI interface
Used output format              : User Defined Encoder
Selected bitrate                : 1024 kBit/s
Quality                         : High
Add ID3 tag                     : Yes
Command line compressor         : C:\Program Files\FLAC\flac.exe
Additional command line options : -V -8 -T "Date=%year%" -T "Genre=%genre%" -T"COMMENT=Ripped by  Ilijan" -8 -V %source%
TOC of the extracted CD
     Track |   Start  |  Length  | Start sector | End sector
    ---------------------------------------------------------
        1  |  0:00.00 |  4:41.07 |         0    |    21081
        2  |  4:41.07 |  3:33.35 |     21082    |    37091
        3  |  8:14.42 |  4:09.29 |     37092    |    55795
        4  | 12:23.71 |  3:22.35 |     55796    |    70980
        5  | 15:46.31 |  5:02.07 |     70981    |    93637
        6  | 20:48.38 |  3:25.04 |     93638    |   109016
        7  | 24:13.42 |  4:01.20 |    109017    |   127111
        8  | 28:14.62 |  2:54.69 |    127112    |   140230
        9  | 31:09.56 |  5:27.53 |    140231    |   164808
       10  | 36:37.34 |  3:59.69 |    164809    |   182802
       11  | 40:37.28 |  6:46.29 |    182803    |   213281
       12  | 47:23.57 |  4:53.45 |    213282    |   235301
       13  | 52:17.27 |  5:16.57 |    235302    |   259058
       14  | 57:34.09 |  3:40.43 |    259059    |   275601
       15  | 61:14.52 |  4:40.74 |    275602    |   296675
       16  | 65:55.51 |  5:04.15 |    296676    |   319490
Range status and errors
Selected range
     Filename D:\ilко\Saxon - Let Me Feel Your Power (CD 1).wav
     Peak level 100.0 %
     Extraction speed 4.1 X
     Range quality 99.9 %
     Test CRC 95BA70FF
     Copy CRC 95BA70FF
     Copy OK
No errors occurred
AccurateRip summary
Track  1  not present in database
Track  2  not present in database
Track  3  not present in database
Track  4  not present in database
Track  5  not present in database
Track  6  not present in database
Track  7  not present in database
Track  8  not present in database
Track  9  not present in database
Track 10  not present in database
Track 11  not present in database
Track 12  not present in database
Track 13  not present in database
Track 14  not present in database
Track 15  not present in database
Track 16  not present in database
None of the tracks are present in the AccurateRip database
End of status report
---- CUETools DB Plugin V2.1.6
[CTDB TOCID: 7raLo.XG452lMwJ.S2lTPcVIfcU-] found
Submit result: 7raLo.XG452lMwJ.S2lTPcVIfcU- has been confirmed
Track | CTDB Status
  1   | (7/7) Accurately ripped
  2   | (7/7) Accurately ripped
  3   | (7/7) Accurately ripped
  4   | (7/7) Accurately ripped
  5   | (7/7) Accurately ripped
  6   | (7/7) Accurately ripped
  7   | (7/7) Accurately ripped
  8   | (7/7) Accurately ripped
  9   | (7/7) Accurately ripped
10   | (7/7) Accurately ripped
11   | (7/7) Accurately ripped
12   | (7/7) Accurately ripped
13   | (7/7) Accurately ripped
14   | (7/7) Accurately ripped
15   | (7/7) Accurately ripped
16   | (7/7) Accurately ripped
Код:
Exact Audio Copy V1.3 from 2. September 2016
EAC extraction logfile from 10. November 2016, 20:43
Saxon / Let Me Feel Your Power (CD2)
Used drive  : ATAPI   iHAS122   W   Adapter: 2  ID: 0
Read mode               : Secure
Utilize accurate stream : Yes
Defeat audio cache      : Yes
Make use of C2 pointers : No
Read offset correction                      : 48
Overread into Lead-In and Lead-Out          : No
Fill up missing offset samples with silence : Yes
Delete leading and trailing silent blocks   : No
Null samples used in CRC calculations       : Yes
Used interface                              : Installed external ASPI interface
Used output format              : User Defined Encoder
Selected bitrate                : 1024 kBit/s
Quality                         : High
Add ID3 tag                     : Yes
Command line compressor         : C:\Program Files\FLAC\flac.exe
Additional command line options : -V -8 -T "Date=%year%" -T "Genre=%genre%" -T"COMMENT=Ripped by  Ilijan" -8 -V %source%
TOC of the extracted CD
     Track |   Start  |  Length  | Start sector | End sector
    ---------------------------------------------------------
        1  |  0:00.00 |  3:43.35 |         0    |    16759
        2  |  3:43.35 |  4:11.35 |     16760    |    35619
        3  |  7:54.70 |  3:55.74 |     35620    |    53318
        4  | 11:50.69 |  4:52.19 |     53319    |    75237
        5  | 16:43.13 |  5:43.28 |     75238    |   100990
        6  | 22:26.41 |  5:58.72 |    100991    |   127912
        7  | 28:25.38 |  2:53.62 |    127913    |   140949
        8  | 31:19.25 |  3:50.66 |    140950    |   158265
        9  | 35:10.16 |  7:19.52 |    158266    |   191242
       10  | 42:29.68 |  5:40.39 |    191243    |   216781
       11  | 48:10.32 |  3:40.26 |    216782    |   233307
       12  | 51:50.58 |  4:01.58 |    233308    |   251440
       13  | 55:52.41 |  4:21.73 |    251441    |   271088
       14  | 60:14.39 |  4:51.45 |    271089    |   292958
       15  | 65:06.09 |  3:57.34 |    292959    |   310767
       16  | 69:03.43 |  4:53.53 |    310768    |   332795
Range status and errors
Selected range
     Filename D:\ilко\Saxon - Let Me Feel Your Power (CD2).wav
     Peak level 100.0 %
     Extraction speed 4.4 X
     Range quality 100.0 %
     Test CRC 666ED62F
     Copy CRC 666ED62F
     Copy OK
No errors occurred
AccurateRip summary
Track  1  not present in database
Track  2  not present in database
Track  3  not present in database
Track  4  not present in database
Track  5  not present in database
Track  6  not present in database
Track  7  not present in database
Track  8  not present in database
Track  9  not present in database
Track 10  not present in database
Track 11  not present in database
Track 12  not present in database
Track 13  not present in database
Track 14  not present in database
Track 15  not present in database
Track 16  not present in database
None of the tracks are present in the AccurateRip database
End of status report
---- CUETools DB Plugin V2.1.6
[CTDB TOCID: 0BEmWAQlHVT5shiOWzgjmB2q7ao-] found
Submit result: 0BEmWAQlHVT5shiOWzgjmB2q7ao- has been confirmed
Track | CTDB Status
  1   | (8/8) Accurately ripped
  2   | (8/8) Accurately ripped
  3   | (8/8) Accurately ripped
  4   | (8/8) Accurately ripped
  5   | (8/8) Accurately ripped
  6   | (8/8) Accurately ripped
  7   | (8/8) Accurately ripped
  8   | (8/8) Accurately ripped
  9   | (8/8) Accurately ripped
10   | (8/8) Accurately ripped
11   | (8/8) Accurately ripped
12   | (8/8) Accurately ripped
13   | (8/8) Accurately ripped
14   | (8/8) Accurately ripped
15   | (8/8) Accurately ripped
16   | (8/8) Accurately ripped
Код:
REM GENRE "Heavy Metal"
REM DATE 2016
REM DISCID 1010A310
REM COMMENT "ExactAudioCopy v1.3"
PERFORMER "Saxon"
TITLE "Let Me Feel Your Power (CD 1)"
FILE "Saxon - Let Me Feel Your Power (CD 1).flac" WAVE
  TRACK 01 AUDIO
    TITLE "Battering Ram (Live In Munich)"
    PERFORMER "Saxon"
    INDEX 01 00:00:00
  TRACK 02 AUDIO
    TITLE "Motorcycle Man (Live In Munich)"
    PERFORMER "Saxon"
    INDEX 01 04:41:07
  TRACK 03 AUDIO
    TITLE "Sacrifice (Live In Munich)"
    PERFORMER "Saxon"
    INDEX 01 08:14:42
  TRACK 04 AUDIO
    TITLE "Destroyer (Live In Munich)"
    PERFORMER "Saxon"
    INDEX 01 12:23:71
  TRACK 05 AUDIO
    TITLE "Power And The Glory (Live In Munich)"
    PERFORMER "Saxon"
    INDEX 01 15:46:31
  TRACK 06 AUDIO
    TITLE "20000 Ft (Live In Munich)"
    PERFORMER "Saxon"
    INDEX 01 20:48:38
  TRACK 07 AUDIO
    TITLE "The Devil's Footprint (Live In Munich)"
    PERFORMER "Saxon"
    INDEX 01 24:13:42
  TRACK 08 AUDIO
    TITLE "Heavy Metal Thunder (Live In Munich)"
    PERFORMER "Saxon"
    INDEX 01 28:14:62
  TRACK 09 AUDIO
    TITLE "Queen Of Hearts (Live In Munich)"
    PERFORMER "Saxon"
    INDEX 01 31:09:56
  TRACK 10 AUDIO
    TITLE "Princess Of The Night (Live In Munich)"
    PERFORMER "Saxon"
    INDEX 01 36:37:34
  TRACK 11 AUDIO
    TITLE "Wheels Of Steel (Live In Munich)"
    PERFORMER "Saxon"
    INDEX 01 40:37:28
  TRACK 12 AUDIO
    TITLE "Denim And Leather (Live In Munich)"
    PERFORMER "Saxon"
    INDEX 01 47:23:57
  TRACK 13 AUDIO
    TITLE "Crusader (Live In Munich)"
    PERFORMER "Saxon"
    INDEX 01 52:17:27
  TRACK 14 AUDIO
    TITLE "Eye Of The Storm (Live In Brighton)"
    PERFORMER "Saxon"
    INDEX 01 57:34:09
  TRACK 15 AUDIO
    TITLE "Battalions Of Steel (Live In Brighton)"
    PERFORMER "Saxon"
    INDEX 01 61:14:52
  TRACK 16 AUDIO
    TITLE "Requiem (Live In Brighton)"
    PERFORMER "Saxon"
    INDEX 01 65:55:51
Код:
REM GENRE "Hard Rock"
REM DATE 2016
REM DISCID CD115510
REM COMMENT "ExactAudioCopy v1.3"
PERFORMER "Saxon"
TITLE "Let Me Feel Your Power (CD2)"
FILE "Saxon - Let Me Feel Your Power (CD2).flac" WAVE
  TRACK 01 AUDIO
    TITLE "Motorcycle Man (Live In Chicago)"
    PERFORMER "Saxon"
    INDEX 01 00:00:00
  TRACK 02 AUDIO
    TITLE "This Town Rocks (Live In Chicago)"
    PERFORMER "Saxon"
    INDEX 01 03:43:35
  TRACK 03 AUDIO
    TITLE "Sacrifice (Live In Chicago)"
    PERFORMER "Saxon"
    INDEX 01 07:54:70
  TRACK 04 AUDIO
    TITLE "Power And The Glory (Live In Chicago)"
    PERFORMER "Saxon"
    INDEX 01 11:50:69
  TRACK 05 AUDIO
    TITLE "Solid Ball Of Rock (Live In Chicago)"
    PERFORMER "Saxon"
    INDEX 01 16:43:13
  TRACK 06 AUDIO
    TITLE "Dallas 1PM (Live In Chicago)"
    PERFORMER "Saxon"
    INDEX 01 22:26:41
  TRACK 07 AUDIO
    TITLE "Heavy Metal Thunder (Live In Chicago)"
    PERFORMER "Saxon"
    INDEX 01 28:25:38
  TRACK 08 AUDIO
    TITLE "Rock The Nations (Live In Chicago)"
    PERFORMER "Saxon"
    INDEX 01 31:19:25
  TRACK 09 AUDIO
    TITLE "The Eagle Has Landed (Live In Chicago)"
    PERFORMER "Saxon"
    INDEX 01 35:10:16
  TRACK 10 AUDIO
    TITLE "Wheels Of Steel (Live In Chicago)"
    PERFORMER "Saxon"
    INDEX 01 42:29:68
  TRACK 11 AUDIO
    TITLE "Backs To The Wall (Live In Chicago)"
    PERFORMER "Saxon"
    INDEX 01 48:10:32
  TRACK 12 AUDIO
    TITLE "Just Let Me Rock (Live In Chicago)"
    PERFORMER "Saxon"
    INDEX 01 51:50:58
  TRACK 13 AUDIO
    TITLE "Strong Arm Of The Law (Live In Chicago)"
    PERFORMER "Saxon"
    INDEX 01 55:52:41
  TRACK 14 AUDIO
    TITLE "747 (Strangers In The Night) (Live In Chicago)"
    PERFORMER "Saxon"
    INDEX 01 60:14:39
  TRACK 15 AUDIO
    TITLE "Princess Of The Night (Live In Chicago)"
    PERFORMER "Saxon"
    INDEX 01 65:06:09
  TRACK 16 AUDIO
    TITLE "Denim And Leather (Live In Chicago)"
    PERFORMER "Saxon"
    INDEX 01 69:03:43
Biff Byford - Vocals
Nigel Glockler - Drums
Nibbs Carter - Bass
Doug Scarratt - Guitars
Paul Quinn - Guitars
--
Download / Скачать

Хотите скачать бесплатно? Зарегистрируйтесь на сайте (ссылка на регистрацию). Pirat.ca - самый быстрый торрент трекер в рунете!

Как скачивать  ·   Что такое торрент  ·   Рейтинг и ограничения

Показать сообщения:    
Ответить на тему

Текущее время: Сегодня 03:08

Часовой пояс: GMT + 4



Вы не можете начинать темы
Вы не можете отвечать на сообщения
Вы не можете редактировать свои сообщения
Вы не можете удалять свои сообщения
Вы не можете голосовать в опросах
Вы не можете прикреплять файлы к сообщениям
Вы не можете скачивать файлы

▼ Вниз