Уважаемый Гость!
Вы можете поддержать проект и зарегистрироваться у наших партнеров - онлайн-стратегия MyLands. При регистрации в игре Вы получите код, который сможете активировать после регистрации на pirat.ca и получить 1000 дублонов.

Ваш код:
bf76b4fde44c7189cfb4d32d5b204facc1d6d492
 
     

(Modern Melodic Death Metal) In Flames - Battles - (Limited Edition) - 2016 [FLAC, image+.cue, lossless]

Ответить на тему
 
Автор
Сообщение

Пост 14-Ноя-2016 03:52

[Q] 

Дядя Вова

Гроза морей

-In Flames - Battles - (Limited Edition)-- Год издания: 2016
Страна: Sweden
Жанр: Modern Melodic Death Metal
Продолжительность: 00:55:35-Лейбл издания: Nuclear Blast Records
Тип альбома: Master
Страна-выпуска диска: 11 Nov 2016 Europe
Номер по каталогу: [27361 37730]
Формат: FLAC
Битрейт аудио: lossless
Тип рипа: image+.cue
Наличие сканов в содержимом раздачи: да-
01. Drained
02. The End
03. Like Sand
04. The Truth
05. In My Room
06. Before I Fall
07. Through My Eyes
08. Battles
09. Here Until Forever
10. Underneath My Skin
11. Wallflower
12. Save Me
13. Greatest Greed (Bonus Track)
14. Us Against the World (Bonus Track)
-
Exact Audio Copy V1.3 from 2. September 2016
EAC extraction logfile from 11. November 2016, 17:43
In Flames / Battles
Used drive : ATAPI iHAS122 W Adapter: 2 ID: 0
Read mode : Secure
Utilize accurate stream : Yes
Defeat audio cache : Yes
Make use of C2 pointers : No
Read offset correction : 48
Overread into Lead-In and Lead-Out : No
Fill up missing offset samples with silence : Yes
Delete leading and trailing silent blocks : No
Null samples used in CRC calculations : Yes
Used interface : Installed external ASPI interface
Used output format : User Defined Encoder
Selected bitrate : 1024 kBit/s
Quality : High
Add ID3 tag : Yes
Command line compressor : C:\Program Files\FLAC\flac.exe
Additional command line options : -V -8 -T "Date=%year%" -T "Genre=%genre%" -T"COMMENT=Ripped by Ilijan" -8 -V %source%
TOC of the extracted CD
Track | Start | Length | Start sector | End sector
---------------------------------------------------------
1 | 0:00.00 | 4:06.73 | 0 | 18522
2 | 4:06.73 | 3:58.37 | 18523 | 36409
3 | 8:05.35 | 3:43.49 | 36410 | 53183
4 | 11:49.09 | 3:04.40 | 53184 | 67023
5 | 14:53.49 | 3:25.33 | 67024 | 82431
6 | 18:19.07 | 3:27.53 | 82432 | 98009
7 | 21:46.60 | 3:50.15 | 98010 | 115274
8 | 25:37.00 | 2:58.44 | 115275 | 128668
9 | 28:35.44 | 4:19.06 | 128669 | 148099
10 | 32:54.50 | 3:30.68 | 148100 | 163917
11 | 36:25.43 | 7:06.06 | 163918 | 195873
12 | 43:31.49 | 4:12.41 | 195874 | 214814
13 | 47:44.15 | 4:09.69 | 214815 | 233558
14 | 51:54.09 | 3:40.47 | 233559 | 250105
Range status and errors
Selected range
Filename D:\ilко\In Flames - Battles.wav
Peak level 99.8 %
Extraction speed 3.8 X
Range quality 100.0 %
Test CRC BB1CBD15
Copy CRC BB1CBD15
Copy OK
No errors occurred
AccurateRip summary
Track 1 not present in database
Track 2 not present in database
Track 3 not present in database
Track 4 not present in database
Track 5 not present in database
Track 6 not present in database
Track 7 not present in database
Track 8 not present in database
Track 9 not present in database
Track 10 not present in database
Track 11 not present in database
Track 12 not present in database
Track 13 not present in database
Track 14 not present in database
None of the tracks are present in the AccurateRip database
End of status report
---- CUETools DB Plugin V2.1.6
[CTDB TOCID: 3Tz5MVuIE49_Y8T9oGqvnnl4p5w-] found
Submit result: 3Tz5MVuIE49_Y8T9oGqvnnl4p5w- has been confirmed
Track | CTDB Status
1 | (17/17) Accurately ripped
2 | (17/17) Accurately ripped
3 | (17/17) Accurately ripped
4 | (17/17) Accurately ripped
5 | (17/17) Accurately ripped
6 | (17/17) Accurately ripped
7 | (17/17) Accurately ripped
8 | (17/17) Accurately ripped
9 | (17/17) Accurately ripped
10 | (17/17) Accurately ripped
11 | (17/17) Accurately ripped
12 | (17/17) Accurately ripped
13 | (17/17) Accurately ripped
14 | (17/17) Accurately ripped
==== Log checksum 146FED137F6B59288C090355F780F3CC30050A657976443395A073CA962A160D ====
-
REM GENRE Modern Melodic Death Metal
REM DATE 2016
REM DISCID C90D060E
REM COMMENT 11 Nov 2016 Europe
PERFORMER "In Flames"
TITLE "Battles"
FILE "In Flames - Battles.flac" WAVE
TRACK 01 AUDIO
TITLE "Drainer"
INDEX 01 00:00:00
TRACK 02 AUDIO
TITLE "The End"
INDEX 01 04:06:73
TRACK 03 AUDIO
TITLE "Like Sand"
INDEX 01 08:05:35
TRACK 04 AUDIO
TITLE "The Truth"
INDEX 01 11:49:09
TRACK 05 AUDIO
TITLE "In My Room"
INDEX 01 14:53:49
TRACK 06 AUDIO
TITLE "Before I Fall"
INDEX 01 18:19:07
TRACK 07 AUDIO
TITLE "Through My Eyes"
INDEX 01 21:46:60
TRACK 08 AUDIO
TITLE "Battles"
INDEX 01 25:37:00
TRACK 09 AUDIO
TITLE "Here Until Forever"
INDEX 01 28:35:44
TRACK 10 AUDIO
TITLE "Underneath My Skin"
INDEX 01 32:54:50
TRACK 11 AUDIO
TITLE "Wallflower"
INDEX 01 36:25:43
TRACK 12 AUDIO
TITLE "Save Me"
INDEX 01 43:31:49
TRACK 13 AUDIO
TITLE "Greatest Greed (Bonus Track)"
INDEX 01 47:44:15
TRACK 14 AUDIO
TITLE "Us Against The World (Bonus Track)"
INDEX 01 51:54:09
-
-
--Работаю не за Спасибо , а за ИДЕЮ.--
Download / Скачать

Хотите скачать бесплатно? Зарегистрируйтесь на сайте (ссылка на регистрацию). Pirat.ca - самый быстрый торрент трекер в рунете!

Как скачивать  ·   Что такое торрент  ·   Рейтинг и ограничения

Показать сообщения:    
Ответить на тему

Текущее время: Сегодня 12:32

Часовой пояс: GMT + 4



Вы не можете начинать темы
Вы не можете отвечать на сообщения
Вы не можете редактировать свои сообщения
Вы не можете удалять свои сообщения
Вы не можете голосовать в опросах
Вы не можете прикреплять файлы к сообщениям
Вы не можете скачивать файлы

▼ Вниз