Уважаемый Гость!
Вы можете поддержать проект и зарегистрироваться у наших партнеров - онлайн-стратегия MyLands. При регистрации в игре Вы получите код, который сможете активировать после регистрации на pirat.ca и получить 1000 дублонов.

Ваш код:
6ce94c87b14c77f4c9d9415fb160accb369c92d9
 
     

(Melodic Death Metal) Dark Tranquillity - Atoma (Limited Edition, Mediabook) - 2016 [FLAC, image+.cue, lossless]

Ответить на тему
 
Автор
Сообщение

Пост 14-Ноя-2016 04:29

[Q] 

Дядя Вова

Гроза морей

-Dark Tranquillity - Atoma (Limited Edition, Mediabook)-- Год издания: 2016
Страна: Sweden (Gothenburg)
Жанр: Melodic Death Metal
Продолжительность: 00:58:27-Лейбл издания: Century Media
Тип альбома: Master
Страна-выпуска диска: 04 Nov 2016 Europe
Номер по каталогу: 88985373912
Формат: FLAC
Битрейт аудио: lossless
Тип рипа: image+.cue
Наличие сканов в содержимом раздачи: да-
01. Encircled 03:32
02. Atoma 04:19
03. Forward Momentum 03:40
04. Neutrality 04:17
05. Force Of Hand 04:22
06. Faithless By Default 04:31
07. The Pitiless 04:08
08. Our Proof Of Life 04:22
09. Clearing Skies 03:33
10. When The World Screams 03:57
11. Merciless Fate 04:22
12. Caves And Embers 04:30
Exact Audio Copy V1.1 from 23. June 2015
EAC extraction logfile from 10. November 2016, 11:59
Dark Tranquility / Atoma Disc 1
Used drive : TSSTcorpBDDVDW SE-506CB Adapter: 1 ID: 1
Read mode : Secure
Utilize accurate stream : Yes
Defeat audio cache : Yes
Make use of C2 pointers : No
Read offset correction : 6
Overread into Lead-In and Lead-Out : No
Fill up missing offset samples with silence : Yes
Delete leading and trailing silent blocks : No
Null samples used in CRC calculations : Yes
Used interface : Native Win32 interface for Win NT & 2000
Used output format : User Defined Encoder
Selected bitrate : 1024 kBit/s
Quality : Low
Add ID3 tag : No
Command line compressor : C:\Program Files (x86)\Exact Audio Copy\FLAC\FLAC.EXE
Additional command line options : -V -8 -T "Date=%year%" -T "Genre=%genre%" -T"COMMENT=Ripped by Ungern666" -8 -V %source%
TOC of the extracted CD
Track | Start | Length | Start sector | End sector
---------------------------------------------------------
1 | 0:00.00 | 3:32.28 | 0 | 15927
2 | 3:32.28 | 4:19.72 | 15928 | 35424
3 | 7:52.25 | 3:40.63 | 35425 | 51987
4 | 11:33.13 | 4:17.21 | 51988 | 71283
5 | 15:50.34 | 4:22.19 | 71284 | 90952
6 | 20:12.53 | 4:31.51 | 90953 | 111328
7 | 24:44.29 | 4:08.34 | 111329 | 129962
8 | 28:52.63 | 4:22.58 | 129963 | 149670
9 | 33:15.46 | 3:33.20 | 149671 | 165665
10 | 36:48.66 | 3:57.29 | 165666 | 183469
11 | 40:46.20 | 4:22.66 | 183470 | 203185
12 | 45:09.11 | 4:30.69 | 203186 | 223504
Range status and errors
Selected range
Filename C:\EAC\Ungern666\Dark Tranquility - Atoma Disc 1.wav
Peak level 100.0 %
Extraction speed 2.7 X
Range quality 99.9 %
Test CRC 41367326
Copy CRC 41367326
Copy OK
No errors occurred
AccurateRip summary
Track 1 not present in database
Track 2 not present in database
Track 3 not present in database
Track 4 not present in database
Track 5 not present in database
Track 6 not present in database
Track 7 not present in database
Track 8 not present in database
Track 9 not present in database
Track 10 not present in database
Track 11 not present in database
Track 12 not present in database
None of the tracks are present in the AccurateRip database
End of status report
---- CUETools DB Plugin V2.1.6
[CTDB TOCID: 18Q4kCxFjArSo7deMQGk3yVY0Rs-] found
Submit result: 18Q4kCxFjArSo7deMQGk3yVY0Rs- has been confirmed
Track | CTDB Status
1 | (69/69) Accurately ripped
2 | (69/69) Accurately ripped
3 | (69/69) Accurately ripped
4 | (69/69) Accurately ripped
5 | (69/69) Accurately ripped
6 | (69/69) Accurately ripped
7 | (68/69) Accurately ripped
8 | (68/69) Accurately ripped
9 | (69/69) Accurately ripped
10 | (69/69) Accurately ripped
11 | (69/69) Accurately ripped
12 | (69/69) Accurately ripped
==== Log checksum 802C0EAD254FC83E49F6368001A531C6AD4146825BB0C29EA64721E400636D73 ====
REM GENRE "Melodic Death Metal"
REM DATE 2016
REM DISCID A20BA40C
REM COMMENT "2016 Europe, Limited Edition, Mediabook"
PERFORMER "Dark Tranquility"
TITLE "Atoma"
FILE "Dark Tranquility - Atoma Disc 1.flac" WAVE
TRACK 01 AUDIO
TITLE "Encircled"
PERFORMER "Dark Tranquility"
INDEX 01 00:00:00
TRACK 02 AUDIO
TITLE "Atoma"
PERFORMER "Dark Tranquility"
INDEX 01 03:32:28
TRACK 03 AUDIO
TITLE "Forward Momentum"
PERFORMER "Dark Tranquility"
INDEX 01 07:52:25
TRACK 04 AUDIO
TITLE "Neutrality"
PERFORMER "Dark Tranquility"
INDEX 01 11:33:13
TRACK 05 AUDIO
TITLE "Force Of Hand"
PERFORMER "Dark Tranquility"
INDEX 01 15:50:34
TRACK 06 AUDIO
TITLE "Faithless By Default"
PERFORMER "Dark Tranquility"
INDEX 01 20:12:53
TRACK 07 AUDIO
TITLE "The Pitiless"
PERFORMER "Dark Tranquility"
INDEX 01 24:44:29
TRACK 08 AUDIO
TITLE "Our Proof Of Life"
PERFORMER "Dark Tranquility"
INDEX 01 28:52:63
TRACK 09 AUDIO
TITLE "Clearing Skies"
PERFORMER "Dark Tranquility"
INDEX 01 33:15:46
TRACK 10 AUDIO
TITLE "When The World Screams"
PERFORMER "Dark Tranquility"
INDEX 01 36:48:66
TRACK 11 AUDIO
TITLE "Merciless Fate"
PERFORMER "Dark Tranquility"
INDEX 01 40:46:20
TRACK 12 AUDIO
TITLE "Caves And Embers"
PERFORMER "Dark Tranquility"
INDEX 01 45:09:11
-
01. The Absolute 05:16
02. Time Out Of Place 03:38
Exact Audio Copy V1.1 from 23. June 2015
EAC extraction logfile from 10. November 2016, 12:23
Dark Tranquillity / Atoma Disc 2
Used drive : TSSTcorpBDDVDW SE-506CB Adapter: 1 ID: 1
Read mode : Secure
Utilize accurate stream : Yes
Defeat audio cache : Yes
Make use of C2 pointers : No
Read offset correction : 6
Overread into Lead-In and Lead-Out : No
Fill up missing offset samples with silence : Yes
Delete leading and trailing silent blocks : No
Null samples used in CRC calculations : Yes
Used interface : Native Win32 interface for Win NT & 2000
Used output format : User Defined Encoder
Selected bitrate : 1024 kBit/s
Quality : Low
Add ID3 tag : No
Command line compressor : C:\Program Files (x86)\Exact Audio Copy\FLAC\FLAC.EXE
Additional command line options : -V -8 -T "Date=%year%" -T "Genre=%genre%" -T"COMMENT=Ripped by Ungern666" -8 -V %source%
TOC of the extracted CD
Track | Start | Length | Start sector | End sector
---------------------------------------------------------
1 | 0:00.00 | 5:16.44 | 0 | 23743
2 | 5:16.44 | 3:38.55 | 23744 | 40148
Range status and errors
Selected range
Filename C:\EAC\Ungern666\Dark Tranquillity - Atoma Disc 2.wav
Peak level 98.1 %
Extraction speed 1.4 X
Range quality 100.0 %
Test CRC 3D2BFF8E
Copy CRC 3D2BFF8E
Copy OK
No errors occurred
AccurateRip summary
Track 1 not present in database
Track 2 not present in database
None of the tracks are present in the AccurateRip database
End of status report
---- CUETools DB Plugin V2.1.6
[CTDB TOCID: W0N8nEjsAu42trjZrZWh393NrRo-] found
Submit result: W0N8nEjsAu42trjZrZWh393NrRo- has been confirmed
Track | CTDB Status
1 | (44/44) Accurately ripped
2 | (44/44) Accurately ripped
==== Log checksum 32367D1C3D5B21B6AAECD74F31EC95D9A20E3A227C1E463DB542F78F9024DF46 ====
REM GENRE "Melodic Death Metal"
REM DATE 2016
REM DISCID 0E021702
REM COMMENT "2016 Europe, Limited Edition, Mediabook"
PERFORMER "Dark Tranquillity"
TITLE "Atoma"
FILE "Dark Tranquillity - Atoma Disc 2.flac" WAVE
TRACK 01 AUDIO
TITLE "The Absolute"
PERFORMER "Dark Tranquillity"
INDEX 01 00:00:00
TRACK 02 AUDIO
TITLE "Time Out Of Place"
PERFORMER "Dark Tranquillity"
INDEX 00 05:14:62
INDEX 01 05:16:44
-
-
--Работаю не за Спасибо , а за ИДЕЮ.--
Download / Скачать

Хотите скачать бесплатно? Зарегистрируйтесь на сайте (ссылка на регистрацию). Pirat.ca - самый быстрый торрент трекер в рунете!

Как скачивать  ·   Что такое торрент  ·   Рейтинг и ограничения

Показать сообщения:    
Ответить на тему

Текущее время: Сегодня 01:16

Часовой пояс: GMT + 4



Вы не можете начинать темы
Вы не можете отвечать на сообщения
Вы не можете редактировать свои сообщения
Вы не можете удалять свои сообщения
Вы не можете голосовать в опросах
Вы не можете прикреплять файлы к сообщениям
Вы не можете скачивать файлы

▼ Вниз