Уважаемый Гость!
Вы можете поддержать проект и зарегистрироваться у наших партнеров - онлайн-стратегия MyLands. При регистрации в игре Вы получите код, который сможете активировать после регистрации на pirat.ca и получить 1000 дублонов.

Ваш код:
1b8effbb2d91248629d5897a85d0d1c4a4c433f0
 
     

(Thrash Metal) Metallica - Hardwired... To Self-Destruct-(Deluxe Edition) (3CD) - 2016 [FLAC, image+.cue, lossless]

Ответить на тему
 
Автор
Сообщение

Пост 22-Ноя-2016 23:26

[Q] 

Дядя Вова

Гроза морей

-Metallica - Hardwired... To Self-Destruct-(3cd Deluxe Edition)-- Год издания: 2016
Страна: Los Angeles USA
Жанр: Thrash Metal
Продолжительность: 02:33:10-Лейбл издания: Blackened Recordings
Тип альбома: Compilant
Страна-выпуска диска: November 18th, 2016, Europe
Номер по каталогу: 00602557156317
Формат: FLAC
Битрейт аудио: lossless
Тип рипа: image+.cue
Наличие сканов в содержимом раздачи: да-
-
01. Hardwired
02. Atlas, Rise!
03. Now That We're Dead
04. Moth into Flame
05. Dream No More
06. Halo on Fire
Exact Audio Copy V1.0 beta 3 from 29. August 2011
EAC extraction logfile from 21. November 2016, 17:43
METALLICA / Hardwired...To Self-Destruct (CD1)
Used drive : HL-DT-STDVD-RAM GH15L Adapter: 4 ID: 0
Read mode : Secure
Utilize accurate stream : Yes
Defeat audio cache : Yes
Make use of C2 pointers : No
Read offset correction : 667
Overread into Lead-In and Lead-Out : No
Fill up missing offset samples with silence : Yes
Delete leading and trailing silent blocks : No
Null samples used in CRC calculations : Yes
Used interface : Native Win32 interface for Win NT & 2000
Used output format : User Defined Encoder
Selected bitrate : 896 kBit/s
Quality : High
Add ID3 tag : Yes
Command line compressor : C:\Program Files (x86)\Exact Audio Copy\Flac\flac.exe
Additional command line options : -6 -V -T "ARTIST=%artist%" -T "TITLE=%title%" -T "ALBUM=%albumtitle%" -T "DATE=%year%" -T "TRACKNUMBER=%tracknr%" -T "GENRE=%genre%" -T "COMMENT=%comment%" -T "BAND=%albuminterpret%" -T "ALBUMARTIST=%albuminterpret%" -T "COMPOSER=%composer%" %haslyrics%--tag-from-file=LYRICS="%lyricsfile%"%haslyrics% -T "DISCNUMBER=%cdnumber%" -T "TOTALDISCS=%totalcds%" -T "TOTALTRACKS=%numtracks%" %hascover%--picture="%coverfile%"%hascover% %source% -o %dest%
TOC of the extracted CD
Track | Start | Length | Start sector | End sector
---------------------------------------------------------
1 | 0:00.00 | 3:09.26 | 0 | 14200
2 | 3:09.26 | 6:28.46 | 14201 | 43346
3 | 9:37.72 | 6:59.06 | 43347 | 74777
4 | 16:37.03 | 5:50.48 | 74778 | 101075
5 | 22:27.51 | 6:29.45 | 101076 | 130295
6 | 28:57.21 | 8:15.02 | 130296 | 167422
Range status and errors
Selected range
Filename C:\Users\DAREK\Downloads\Desktop\METALLICA [2016] [CD1] Hardwired... To Self-Destruct\METALLICA - Hardwired...To Self-Destruct (CD1).wav
Peak level 98.8 %
Extraction speed 5.6 X
Range quality 100.0 %
Test CRC C60D4271
Copy CRC C60D4271
Copy OK
No errors occurred
AccurateRip summary
Track 1 not present in database
Track 2 not present in database
Track 3 not present in database
Track 4 not present in database
Track 5 not present in database
Track 6 not present in database
None of the tracks are present in the AccurateRip database
End of status report
REM GENRE Thrash Metal
REM DATE 2016
REM COMMENT 2016, Europe, Deluxe Edition, DR5
PERFORMER "Metallica"
TITLE "Hardwired... To Self-Destruct (Disc 1)"
FILE "Metallica - Hardwired... To Self-Destruct (CD1).flac" WAVE
TRACK 01 AUDIO
TITLE "Hardwired"
INDEX 01 00:00:00
TRACK 02 AUDIO
TITLE "Atlas, Rise!"
INDEX 01 03:09:26
TRACK 03 AUDIO
TITLE "Now That We're Dead"
INDEX 01 09:37:72
TRACK 04 AUDIO
TITLE "Moth into Flame"
INDEX 01 16:37:03
TRACK 05 AUDIO
TITLE "Dream No More"
INDEX 01 22:27:51
TRACK 06 AUDIO
TITLE "Halo on Fire"
INDEX 01 28:57:21
-
01. Confusion
02. ManUNkind
03. Here Comes Revenge
04. Am I Savage?
05. Murder One
06. Spit Out the Bone
Exact Audio Copy V1.0 beta 3 from 29. August 2011
EAC extraction logfile from 21. November 2016, 18:22
METALLICA / Hardwired...To Self-Destruct (CD2)
Used drive : HL-DT-STDVD-RAM GH15L Adapter: 4 ID: 0
Read mode : Secure
Utilize accurate stream : Yes
Defeat audio cache : Yes
Make use of C2 pointers : No
Read offset correction : 667
Overread into Lead-In and Lead-Out : No
Fill up missing offset samples with silence : Yes
Delete leading and trailing silent blocks : No
Null samples used in CRC calculations : Yes
Used interface : Native Win32 interface for Win NT & 2000
Used output format : User Defined Encoder
Selected bitrate : 896 kBit/s
Quality : High
Add ID3 tag : Yes
Command line compressor : C:\Program Files (x86)\Exact Audio Copy\Flac\flac.exe
Additional command line options : -6 -V -T "ARTIST=%artist%" -T "TITLE=%title%" -T "ALBUM=%albumtitle%" -T "DATE=%year%" -T "TRACKNUMBER=%tracknr%" -T "GENRE=%genre%" -T "COMMENT=%comment%" -T "BAND=%albuminterpret%" -T "ALBUMARTIST=%albuminterpret%" -T "COMPOSER=%composer%" %haslyrics%--tag-from-file=LYRICS="%lyricsfile%"%haslyrics% -T "DISCNUMBER=%cdnumber%" -T "TOTALDISCS=%totalcds%" -T "TOTALTRACKS=%numtracks%" %hascover%--picture="%coverfile%"%hascover% %source% -o %dest%
TOC of the extracted CD
Track | Start | Length | Start sector | End sector
---------------------------------------------------------
1 | 0:00.00 | 6:41.16 | 0 | 30090
2 | 6:41.16 | 6:55.45 | 30091 | 61260
3 | 13:36.61 | 7:17.47 | 61261 | 94082
4 | 20:54.33 | 6:29.50 | 94083 | 123307
5 | 27:24.08 | 5:45.21 | 123308 | 149203
6 | 33:09.29 | 7:09.16 | 149204 | 181394
Range status and errors
Selected range
Filename C:\Users\DAREK\Downloads\Desktop\METALLICA [2016] [CD2] Hardwired... To Self-Destruct\METALLICA - Hardwired...To Self-Destruct (CD2).wav
Peak level 98.8 %
Extraction speed 5.6 X
Range quality 99.9 %
Test CRC 80BC37BE
Copy CRC 80BC37BE
Copy OK
No errors occurred
AccurateRip summary
Track 1 not present in database
Track 2 not present in database
Track 3 not present in database
Track 4 not present in database
Track 5 not present in database
Track 6 not present in database
None of the tracks are present in the AccurateRip database
End of status report
REM GENRE Thrash Metal
REM DATE 2016
REM COMMENT 2016, Europe, Deluxe Edition, DR6
PERFORMER "Metallica"
TITLE "Hardwired... To Self-Destruct (Disc 2)"
FILE "Metallica - Hardwired... To Self-Destruct (CD2).flac" WAVE
TRACK 01 AUDIO
TITLE "Confusion"
INDEX 01 00:00:00
TRACK 02 AUDIO
TITLE "ManUNkind"
INDEX 01 06:41:16
TRACK 03 AUDIO
TITLE "Here Comes Revenge"
INDEX 01 13:36:61
TRACK 04 AUDIO
TITLE "Am I Savage?"
INDEX 01 20:54:33
TRACK 05 AUDIO
TITLE "Murder One"
INDEX 01 27:24:08
TRACK 06 AUDIO
TITLE "Spit Out the Bone"
INDEX 01 33:09:29
-
01. Lords of Summer
02. Ronnie Rising Medley
03. When a Blind Man Cries
04. Remember Tomorrow
05. Helpless (Live)
06. Hit the Lights (Live)
07. The Four Horsemen (Live)
08. Ride the Lightning (Live)
09. Fade to Black (Live)
10. Jump in the Fire (Live)
11. For Whom the Bell Tolls (Live)
12. Creeping Death (Live)
13. Metal Militia (Live)
14. Hardwired (Live)
Exact Audio Copy V1.0 beta 3 from 29. August 2011
EAC extraction logfile from 21. November 2016, 17:06
METALLICA / Hardwired... To Self-Destruct (CD3)
Used drive : HL-DT-STDVD-RAM GH15L Adapter: 4 ID: 0
Read mode : Secure
Utilize accurate stream : Yes
Defeat audio cache : Yes
Make use of C2 pointers : No
Read offset correction : 667
Overread into Lead-In and Lead-Out : No
Fill up missing offset samples with silence : Yes
Delete leading and trailing silent blocks : No
Null samples used in CRC calculations : Yes
Used interface : Native Win32 interface for Win NT & 2000
Used output format : User Defined Encoder
Selected bitrate : 896 kBit/s
Quality : High
Add ID3 tag : Yes
Command line compressor : C:\Program Files (x86)\Exact Audio Copy\Flac\flac.exe
Additional command line options : -6 -V -T "ARTIST=%artist%" -T "TITLE=%title%" -T "ALBUM=%albumtitle%" -T "DATE=%year%" -T "TRACKNUMBER=%tracknr%" -T "GENRE=%genre%" -T "COMMENT=%comment%" -T "BAND=%albuminterpret%" -T "ALBUMARTIST=%albuminterpret%" -T "COMPOSER=%composer%" %haslyrics%--tag-from-file=LYRICS="%lyricsfile%"%haslyrics% -T "DISCNUMBER=%cdnumber%" -T "TOTALDISCS=%totalcds%" -T "TOTALTRACKS=%numtracks%" %hascover%--picture="%coverfile%"%hascover% %source% -o %dest%
TOC of the extracted CD
Track | Start | Length | Start sector | End sector
---------------------------------------------------------
1 | 0:00.00 | 7:10.00 | 0 | 32249
2 | 7:10.00 | 9:03.11 | 32250 | 72985
3 | 16:13.11 | 4:35.01 | 72986 | 93611
4 | 20:48.12 | 5:50.05 | 93612 | 119866
5 | 26:38.17 | 3:08.01 | 119867 | 133967
6 | 29:46.18 | 4:07.00 | 133968 | 152492
7 | 33:53.18 | 5:19.18 | 152493 | 176435
8 | 39:12.36 | 6:56.27 | 176436 | 207662
9 | 46:08.63 | 7:24.07 | 207663 | 240969
10 | 53:32.70 | 5:13.09 | 240970 | 264453
11 | 58:46.04 | 4:32.00 | 264454 | 284853
12 | 63:18.04 | 6:43.13 | 284854 | 315091
13 | 70:01.17 | 6:07.36 | 315092 | 342652
14 | 76:08.53 | 3:30.06 | 342653 | 358408
Range status and errors
Selected range
Filename C:\Users\DAREK\Downloads\Desktop\METALLICA [2016] [CD3] Hardwired... To Self-Destruct\METALLICA - Hardwired... To Self-Destruct (CD3).wav
Peak level 100.0 %
Extraction speed 6.5 X
Range quality 100.0 %
Test CRC 1B2326EC
Copy CRC 1B2326EC
Copy OK
No errors occurred
AccurateRip summary
Track 1 not present in database
Track 2 not present in database
Track 3 not present in database
Track 4 not present in database
Track 5 not present in database
Track 6 not present in database
Track 7 not present in database
Track 8 not present in database
Track 9 not present in database
Track 10 not present in database
Track 11 not present in database
Track 12 not present in database
Track 13 not present in database
Track 14 not present in database
None of the tracks are present in the AccurateRip database
End of status report
REM GENRE Thrash Metal
REM DATE 2016
REM COMMENT 2016, Europe, Deluxe Edition, DR6
PERFORMER "Metallica"
TITLE "Hardwired... To Self-Destruct (Bonus)"
FILE "Metallica - Hardwired... To Self-Destruct (CD3).flac" WAVE
TRACK 01 AUDIO
TITLE "Lords of Summer"
INDEX 01 00:00:00
TRACK 02 AUDIO
TITLE "Ronnie Rising Medley"
INDEX 01 07:10:00
TRACK 03 AUDIO
TITLE "When a Blind Man Cries"
INDEX 01 16:13:11
TRACK 04 AUDIO
TITLE "Remember Tomorrow"
INDEX 01 20:48:12
TRACK 05 AUDIO
TITLE "Helpless (Live)"
INDEX 01 26:38:17
TRACK 06 AUDIO
TITLE "Hit the Lights (Live)"
INDEX 01 29:46:18
TRACK 07 AUDIO
TITLE "The Four Horsemen (Live)"
INDEX 01 33:53:18
TRACK 08 AUDIO
TITLE "Ride the Lightning (Live)"
INDEX 01 39:12:36
TRACK 09 AUDIO
TITLE "Fade to Black (Live)"
INDEX 01 46:08:63
TRACK 10 AUDIO
TITLE "Jump in the Fire (Live)"
INDEX 01 53:32:70
TRACK 11 AUDIO
TITLE "For Whom the Bell Tolls (Live)"
INDEX 01 58:46:04
TRACK 12 AUDIO
TITLE "Creeping Death (Live)"
INDEX 01 63:18:04
TRACK 13 AUDIO
TITLE "Metal Militia (Live)"
INDEX 01 70:01:17
TRACK 14 AUDIO
TITLE "Hardwired (Live)"
INDEX 01 76:08:53
-
-
--Работаю не за Спасибо , а за ИДЕЮ.--
Download / Скачать

Хотите скачать бесплатно? Зарегистрируйтесь на сайте (ссылка на регистрацию). Pirat.ca - самый быстрый торрент трекер в рунете!

Как скачивать  ·   Что такое торрент  ·   Рейтинг и ограничения

Пост 23-Ноя-2016 00:50 (спустя 1 час 24 минуты)

Топик был перенесен из форума Rock (Трюм) в форум Metal
sergej644
 
Показать сообщения:    
Ответить на тему

Текущее время: Сегодня 02:50

Часовой пояс: GMT + 4



Вы не можете начинать темы
Вы не можете отвечать на сообщения
Вы не можете редактировать свои сообщения
Вы не можете удалять свои сообщения
Вы не можете голосовать в опросах
Вы не можете прикреплять файлы к сообщениям
Вы не можете скачивать файлы

▼ Вниз