Уважаемый Гость!
Вы можете поддержать проект и зарегистрироваться у наших партнеров - онлайн-стратегия MyLands. При регистрации в игре Вы получите код, который сможете активировать после регистрации на pirat.ca и получить 1000 дублонов.

Ваш код:
b35b3ec45a7bd3f86315766471edc285be832af4
 
     

(Death/Thrash Metal) Vader - The Empire-(Limited Edition) (2CD) - 2016 [FLAC, image+.cue, lossless]

Ответить на тему
 
Автор
Сообщение

Пост 23-Ноя-2016 00:44

[Q] 

Дядя Вова

Гроза морей

-Vader - The Empire-(Limited Edition)-- Год издания: 2016
Страна: Olsztyn, Warmian-Masurian, Poland
Жанр: Death/Thrash Metal
Продолжительность: 00:46:51-Лейбл издания: Witching Hour Productions
Тип альбома: Master + EP
Страна-выпуска диска: November 18th, 2016, Poland
Номер по каталогу: EVIL091DCDD
Формат: FLAC
Битрейт аудио: lossless
Тип рипа: image+.cue
Наличие сканов в содержимом раздачи: да-
01. Angels of Steel
02. Tempest
03. Prayer to the God of War
04. Iron Reign
05. No Gravity
06. Genocidius
07. The Army-Geddon
08. Feel My Pain
09. Parabellum
10. Send Me Back to Hell
-
Exact Audio Copy V1.0 beta 3 from 29. August 2011
EAC extraction logfile from 18. November 2016, 14:39
Vader / The Empire
Used drive : HL-DT-STDVD-RAM GH15L Adapter: 4 ID: 0
Read mode : Secure
Utilize accurate stream : Yes
Defeat audio cache : Yes
Make use of C2 pointers : No
Read offset correction : 667
Overread into Lead-In and Lead-Out : No
Fill up missing offset samples with silence : Yes
Delete leading and trailing silent blocks : No
Null samples used in CRC calculations : Yes
Used interface : Native Win32 interface for Win NT & 2000
Used output format : User Defined Encoder
Selected bitrate : 896 kBit/s
Quality : High
Add ID3 tag : Yes
Command line compressor : C:\Program Files (x86)\Exact Audio Copy\Flac\flac.exe
Additional command line options : -6 -V -T "ARTIST=%artist%" -T "TITLE=%title%" -T "ALBUM=%albumtitle%" -T "DATE=%year%" -T "TRACKNUMBER=%tracknr%" -T "GENRE=%genre%" -T "COMMENT=%comment%" -T "BAND=%albuminterpret%" -T "ALBUMARTIST=%albuminterpret%" -T "COMPOSER=%composer%" %haslyrics%--tag-from-file=LYRICS="%lyricsfile%"%haslyrics% -T "DISCNUMBER=%cdnumber%" -T "TOTALDISCS=%totalcds%" -T "TOTALTRACKS=%numtracks%" %hascover%--picture="%coverfile%"%hascover% %source% -o %dest%
TOC of the extracted CD
Track | Start | Length | Start sector | End sector
---------------------------------------------------------
1 | 0:01.00 | 2:16.72 | 75 | 10346
2 | 2:17.72 | 2:41.36 | 10347 | 22457
3 | 4:59.33 | 2:47.17 | 22458 | 34999
4 | 7:46.50 | 4:37.53 | 35000 | 55827
5 | 12:24.28 | 4:08.61 | 55828 | 74488
6 | 16:33.14 | 2:59.64 | 74489 | 87977
7 | 19:33.03 | 4:10.24 | 87978 | 106751
8 | 23:43.27 | 3:24.04 | 106752 | 122055
9 | 27:07.31 | 2:28.03 | 122056 | 133158
10 | 29:35.34 | 3:32.61 | 133159 | 149119
Range status and errors
Selected range
Filename C:\Users\DAREK\Downloads\Desktop\VADER [2016] [CD1] Empire\Vader - The Empire.wav
Peak level 100.0 %
Extraction speed 4.3 X
Range quality 100.0 %
Test CRC D0182678
Copy CRC D0182678
Copy OK
No errors occurred
AccurateRip summary
Track 1 not present in database
Track 2 not present in database
Track 3 not present in database
Track 4 not present in database
Track 5 not present in database
Track 6 not present in database
Track 7 not present in database
Track 8 not present in database
Track 9 not present in database
Track 10 not present in database
None of the tracks are present in the AccurateRip database
End of status report
-
REM GENRE Death/Thrash Metal
REM DATE 2016
REM COMMENT 2016, Poland, Deluxe Edition, Limited Edition, DR6
PERFORMER "Vader"
TITLE "The Empire"
FILE "Vader - CD1 - The Empire.flac" WAVE
TRACK 01 AUDIO
TITLE "Angels of Steel"
INDEX 00 00:00:00
INDEX 01 00:01:00
TRACK 02 AUDIO
TITLE "Tempest"
INDEX 01 02:17:72
TRACK 03 AUDIO
TITLE "Prayer to the God of War"
INDEX 01 04:59:33
TRACK 04 AUDIO
TITLE "Iron Reign"
INDEX 01 07:46:50
TRACK 05 AUDIO
TITLE "No Gravity"
INDEX 01 12:24:28
TRACK 06 AUDIO
TITLE "Genocidius"
INDEX 01 16:33:14
TRACK 07 AUDIO
TITLE "The Army-Geddon"
INDEX 01 19:33:03
TRACK 08 AUDIO
TITLE "Feel My Pain"
INDEX 01 23:43:27
TRACK 09 AUDIO
TITLE "Parabellum"
INDEX 01 27:07:31
TRACK 10 AUDIO
TITLE "Send Me Back to Hell"
INDEX 01 29:35:34
-
01. Parabellum
02. Prayer to the God of War
03. Piesc i Stal
04. Overkill
Exact Audio Copy V1.0 beta 3 from 29. August 2011
EAC extraction logfile from 18. November 2016, 14:48
Vader / The Empire (Iron Times)
Used drive : HL-DT-STDVD-RAM GH15L Adapter: 4 ID: 0
Read mode : Secure
Utilize accurate stream : Yes
Defeat audio cache : Yes
Make use of C2 pointers : No
Read offset correction : 667
Overread into Lead-In and Lead-Out : No
Fill up missing offset samples with silence : Yes
Delete leading and trailing silent blocks : No
Null samples used in CRC calculations : Yes
Used interface : Native Win32 interface for Win NT & 2000
Used output format : User Defined Encoder
Selected bitrate : 896 kBit/s
Quality : High
Add ID3 tag : Yes
Command line compressor : C:\Program Files (x86)\Exact Audio Copy\Flac\flac.exe
Additional command line options : -6 -V -T "ARTIST=%artist%" -T "TITLE=%title%" -T "ALBUM=%albumtitle%" -T "DATE=%year%" -T "TRACKNUMBER=%tracknr%" -T "GENRE=%genre%" -T "COMMENT=%comment%" -T "BAND=%albuminterpret%" -T "ALBUMARTIST=%albuminterpret%" -T "COMPOSER=%composer%" %haslyrics%--tag-from-file=LYRICS="%lyricsfile%"%haslyrics% -T "DISCNUMBER=%cdnumber%" -T "TOTALDISCS=%totalcds%" -T "TOTALTRACKS=%numtracks%" %hascover%--picture="%coverfile%"%hascover% %source% -o %dest%
TOC of the extracted CD
Track | Start | Length | Start sector | End sector
---------------------------------------------------------
1 | 0:00.00 | 2:29.52 | 0 | 11226
2 | 2:29.52 | 2:48.69 | 11227 | 23895
3 | 5:18.46 | 4:07.13 | 23896 | 42433
4 | 9:25.59 | 4:17.70 | 42434 | 61778
Range status and errors
Selected range
Filename C:\Users\DAREK\Downloads\Desktop\VADER [2016] [CD2] The Empire (Iron Times)\Vader - The Empire (Iron Times).wav
Peak level 100.0 %
Extraction speed 4.4 X
Range quality 99.9 %
Test CRC A86DF23F
Copy CRC A86DF23F
Copy OK
No errors occurred
AccurateRip summary
Track 1 cannot be verified as accurate (confidence 1) [C7D1C8E3], AccurateRip returned [27AE83D6] (AR v2)
Track 2 cannot be verified as accurate (confidence 1) [47C07293], AccurateRip returned [7C6500E4] (AR v2)
Track 3 cannot be verified as accurate (confidence 1) [5261A0E1], AccurateRip returned [0A2D06C7] (AR v2)
Track 4 cannot be verified as accurate (confidence 1) [932D07FA], AccurateRip returned [0D063B0F] (AR v2)
No tracks could be verified as accurate
You may have a different pressing from the one(s) in the database
End of status report
REM GENRE Death/Thrash Metal
REM DATE 2016
REM COMMENT 2016, Poland, Deluxe Edition, Limited Edition, DR6
PERFORMER "Vader"
TITLE "Iron Times (EP)"
FILE "Vader - CD2 - Iron Times.flac" WAVE
TRACK 01 AUDIO
TITLE "Parabellum"
INDEX 01 00:00:00
TRACK 02 AUDIO
TITLE "Prayer to the God of War"
INDEX 01 02:29:52
TRACK 03 AUDIO
TITLE "Pięść i Stal"
INDEX 01 05:18:46
TRACK 04 AUDIO
TITLE "Overkill"
INDEX 01 09:25:59
-
-
--Работаю не за Спасибо , а за ИДЕЮ.--
Download / Скачать

Хотите скачать бесплатно? Зарегистрируйтесь на сайте (ссылка на регистрацию). Pirat.ca - самый быстрый торрент трекер в рунете!

Как скачивать  ·   Что такое торрент  ·   Рейтинг и ограничения

Пост 23-Ноя-2016 00:51 (спустя 6 минут)

Топик был перенесен из форума Rock (Трюм) в форум Metal
sergej644
 
Показать сообщения:    
Ответить на тему

Текущее время: Сегодня 19:00

Часовой пояс: GMT + 4



Вы не можете начинать темы
Вы не можете отвечать на сообщения
Вы не можете редактировать свои сообщения
Вы не можете удалять свои сообщения
Вы не можете голосовать в опросах
Вы не можете прикреплять файлы к сообщениям
Вы не можете скачивать файлы

▼ Вниз