Уважаемый Гость!
Вы можете поддержать проект и зарегистрироваться у наших партнеров - онлайн-стратегия MyLands. При регистрации в игре Вы получите код, который сможете активировать после регистрации на pirat.ca и получить 1000 дублонов.

Ваш код:
1b8effbb2d91248629d5897a85d0d1c4a4c433f0
 
     

(Melodic Death Metal) Ablaze My Sorrow - Black - 2016 [FLAC, image+.cue, lossless]

Ответить на тему
 
Автор
Сообщение

Пост 26-Ноя-2016 03:18

[Q] 

Дядя Вова

Гроза морей

-Ablaze My Sorrow - Black-- Год издания: 2016
Страна: Sweden
Жанр: Melodic Death Metal
Продолжительность: 00:41:46-Лейбл издания: Apostasy Records
Тип альбома: Master
Страна-выпуска диска: August 26th, 2016, Germany
Номер по каталогу: 1057252APY/CDARC029
Формат: FLAC
Битрейт аудио: lossless
Тип рипа: image+.cue
Наличие сканов в содержимом раздачи: да-
01. Black
02. One Last Sting
03. Tvåenighet
04. When All Is...
05. Send The Ninth Plague
06. To Reclaim What Is Ours
07. Insomnia
08. Blood Heritage
09. Razorblade Revolution
10. The Storm
11. My Blessing
-
Exact Audio Copy V1.1 from 23. June 2015
EAC extraction logfile from 13. November 2016, 12:20
Ablaze my Sorrow / Black
Used drive : HL-DT-STBD-RE BH16NS40 Adapter: 3 ID: 0
Read mode : Secure
Utilize accurate stream : Yes
Defeat audio cache : Yes
Make use of C2 pointers : No
Read offset correction : 6
Overread into Lead-In and Lead-Out : No
Fill up missing offset samples with silence : Yes
Delete leading and trailing silent blocks : No
Null samples used in CRC calculations : Yes
Used interface : Installed external ASPI interface
Used output format : User Defined Encoder
Selected bitrate : 128 kBit/s
Quality : High
Add ID3 tag : No
Command line compressor : C:\Program Files (x86)\Exact Audio Copy\Flac\flac.exe
Additional command line options : -V -8 -T "Date=%year%" -T "Genre=%genre%" %source%
TOC of the extracted CD
Track | Start | Length | Start sector | End sector
---------------------------------------------------------
1 | 0:00.00 | 2:42.25 | 0 | 12174
2 | 2:42.25 | 4:19.01 | 12175 | 31600
3 | 7:01.26 | 4:02.33 | 31601 | 49783
4 | 11:03.59 | 4:43.51 | 49784 | 71059
5 | 15:47.35 | 4:12.69 | 71060 | 90028
6 | 20:00.29 | 1:24.60 | 90029 | 96388
7 | 21:25.14 | 3:14.61 | 96389 | 110999
8 | 24:40.00 | 3:40.39 | 111000 | 127538
9 | 28:20.39 | 4:39.06 | 127539 | 148469
10 | 32:59.45 | 4:50.55 | 148470 | 170274
11 | 37:50.25 | 3:56.02 | 170275 | 187976
Range status and errors
Selected range
Filename Z:\home\moroder666\Музыка\Ablaze my Sorrow - Black.wav
Peak level 100.0 %
Extraction speed 3.9 X
Range quality 100.0 %
Test CRC E2AD511C
Copy CRC E2AD511C
Copy OK
No errors occurred
AccurateRip summary
Track 1 not present in database
Track 2 not present in database
Track 3 not present in database
Track 4 not present in database
Track 5 not present in database
Track 6 not present in database
Track 7 not present in database
Track 8 not present in database
Track 9 not present in database
Track 10 not present in database
Track 11 not present in database
None of the tracks are present in the AccurateRip database
End of status report
==== Log checksum 186E960B2AFFA2EE92CAC08C5494E6777247FCBBC03E37FD9DE30BDF8330AF22 ====
-
REM GENRE "Melodic Death Metal"
REM DATE 2016
REM COMMENT "2016, Germany, First Press, DR8"
PERFORMER "Ablaze My Sorrow"
TITLE "Black"
FILE "Ablaze My Sorrow - Black.flac" WAVE
TRACK 01 AUDIO
TITLE "Black"
PERFORMER "Ablaze My Sorrow"
INDEX 01 00:00:00
TRACK 02 AUDIO
TITLE "One Last Sting"
PERFORMER "Ablaze My Sorrow"
INDEX 00 02:40:25
INDEX 01 02:42:25
TRACK 03 AUDIO
TITLE "Tvåenighet"
PERFORMER "Ablaze My Sorrow"
INDEX 00 06:59:26
INDEX 01 07:01:26
TRACK 04 AUDIO
TITLE "When All Is..."
PERFORMER "Ablaze My Sorrow"
INDEX 00 11:01:59
INDEX 01 11:03:59
TRACK 05 AUDIO
TITLE "Send The Ninth Plague"
PERFORMER "Ablaze My Sorrow"
INDEX 00 15:45:35
INDEX 01 15:47:35
TRACK 06 AUDIO
TITLE "To Reclaim What Is Ours"
PERFORMER "Ablaze My Sorrow"
INDEX 00 19:58:29
INDEX 01 20:00:29
TRACK 07 AUDIO
TITLE "Insomnia"
PERFORMER "Ablaze My Sorrow"
INDEX 00 21:23:14
INDEX 01 21:25:14
TRACK 08 AUDIO
TITLE "Blood Heritage"
PERFORMER "Ablaze My Sorrow"
INDEX 00 24:38:00
INDEX 01 24:40:00
TRACK 09 AUDIO
TITLE "Razorblade Revolution"
PERFORMER "Ablaze My Sorrow"
INDEX 00 28:18:39
INDEX 01 28:20:39
TRACK 10 AUDIO
TITLE "The Storm"
PERFORMER "Ablaze My Sorrow"
INDEX 00 32:57:45
INDEX 01 32:59:45
TRACK 11 AUDIO
TITLE "My Blessing"
PERFORMER "Ablaze My Sorrow"
INDEX 00 37:48:25
INDEX 01 37:50:25
-
-
--Работаю не за Спасибо , а за ИДЕЮ.--
Download / Скачать

Хотите скачать бесплатно? Зарегистрируйтесь на сайте (ссылка на регистрацию). Pirat.ca - самый быстрый торрент трекер в рунете!

Как скачивать  ·   Что такое торрент  ·   Рейтинг и ограничения

Пост 26-Ноя-2016 04:50 (спустя 1 час 31 минута)

Топик был перенесен из форума Rock (Трюм) в форум Metal
sergej644
 
Показать сообщения:    
Ответить на тему

Текущее время: Сегодня 02:44

Часовой пояс: GMT + 4



Вы не можете начинать темы
Вы не можете отвечать на сообщения
Вы не можете редактировать свои сообщения
Вы не можете удалять свои сообщения
Вы не можете голосовать в опросах
Вы не можете прикреплять файлы к сообщениям
Вы не можете скачивать файлы

▼ Вниз