Уважаемый Гость!
Вы можете поддержать проект и зарегистрироваться у наших партнеров - онлайн-стратегия MyLands. При регистрации в игре Вы получите код, который сможете активировать после регистрации на pirat.ca и получить 1000 дублонов.

Ваш код:
1b8effbb2d91248629d5897a85d0d1c4a4c433f0
 
     

(Black Metal,Gothic Metal) Devilment - II - The Mephisto Waltzes-(Limited Edition) - 2016 [FLAC, image+.cue, lossless]

Ответить на тему
 
Автор
Сообщение

Пост 04-Дек-2016 03:16

[Q] 

Дядя Вова

Гроза морей

-Devilment - II - The Mephisto Waltzes-(Limited Edition)-- Год издания: 2016
Страна: Ipswich, Suffolk, England, UK
Жанр: Black Metal,Gothic Metal
Продолжительность: 01:01:10-Лейбл издания: Nuclear Blast
Тип альбома: Master
Страна-выпуска диска: 18 Nov 2016 Europe
Номер по каталогу: [NE 3851-0]
Формат: FLAC
Битрейт аудио: lossless
Тип рипа: image+.cue
Наличие сканов в содержимом раздачи: да-
01. JudasStein
02. Hitchcock Blonde
03. Under The Thunder
04. Full Dark, No Stars
05. Shine On Sophie Moone
06. Life Is What You Keep From The Reaper
07. Dea Della Morte
08. Entangled In Our Pride
09. Hell At My Back
10. The Seductive Poison
11. Father Dali
-
Exact Audio Copy V1.3 from 2. September 2016
EAC extraction logfile from 27. November 2016, 20:22
Devilment / II - The Mephisto Waltzes
Used drive : PIONEER BD-RW BDR-206D Adapter: 1 ID: 0
Read mode : Secure
Utilize accurate stream : Yes
Defeat audio cache : Yes
Make use of C2 pointers : No
Read offset correction : 667
Overread into Lead-In and Lead-Out : No
Fill up missing offset samples with silence : Yes
Delete leading and trailing silent blocks : No
Null samples used in CRC calculations : Yes
Used interface : Native Win32 interface for Win NT & 2000
Used output format : User Defined Encoder
Selected bitrate : 896 kBit/s
Quality : High
Add ID3 tag : No
Command line compressor : C:\Progs\!Portable\codecs\flac.exe
Additional command line options : -8 -V -T "ARTIST=%artist%" -T "TITLE=%title%" -T "ALBUM=%albumtitle%" -T "DATE=%year%" -T "TRACKNUMBER=%tracknr%" -T "GENRE=%genre%" -T "PERFORMER=%albuminterpret%" -T "COMPOSER=%composer%" %haslyrics%--tag-from-file=LYRICS="%lyricsfile%"%haslyrics% -T "ALBUMARTIST=%albumartist%" -T "DISCNUMBER=%cdnumber%" -T "TOTALDISCS=%totalcds%" -T "TOTALTRACKS=%numtracks%" -T "COMMENT=%comment%" %source% -o %dest%
TOC of the extracted CD
Track | Start | Length | Start sector | End sector
---------------------------------------------------------
1 | 0:00.00 | 5:21.49 | 0 | 24123
2 | 5:21.49 | 4:09.00 | 24124 | 42798
3 | 9:30.49 | 5:19.58 | 42799 | 66781
4 | 14:50.32 | 6:23.27 | 66782 | 95533
5 | 21:13.59 | 6:34.41 | 95534 | 125124
6 | 27:48.25 | 5:02.26 | 125125 | 147800
7 | 32:50.51 | 5:36.28 | 147801 | 173028
8 | 38:27.04 | 5:33.00 | 173029 | 198003
9 | 44:00.04 | 5:44.00 | 198004 | 223803
10 | 49:44.04 | 5:24.66 | 223804 | 248169
11 | 55:08.70 | 6:00.50 | 248170 | 275219
Range status and errors
Selected range
Filename W:\eMule\DEVILMENT [2016] [CD] II - Mephisto Waltzes (Lim. Ed.) [EAC-FLAC]\Devilment - 2016 - II - The Mephisto Waltzes.wav
Peak level 96.8 %
Extraction speed 7.5 X
Range quality 99.9 %
Test CRC DA7AD0D3
Copy CRC DA7AD0D3
Copy OK
No errors occurred
AccurateRip summary
Track 1 not present in database
Track 2 not present in database
Track 3 not present in database
Track 4 not present in database
Track 5 not present in database
Track 6 not present in database
Track 7 not present in database
Track 8 not present in database
Track 9 not present in database
Track 10 not present in database
Track 11 not present in database
None of the tracks are present in the AccurateRip database
End of status report
---- CUETools DB Plugin V2.1.6
[CTDB TOCID: zPqeEMF.tRIABLOmdmLnlj55YTY-] found
Submit result: already submitted
Track | CTDB Status
1 | (8/8) Accurately ripped
2 | (8/8) Accurately ripped
3 | (8/8) Accurately ripped
4 | (8/8) Accurately ripped
5 | (8/8) Accurately ripped
6 | (8/8) Accurately ripped
7 | (8/8) Accurately ripped
8 | (8/8) Accurately ripped
9 | (8/8) Accurately ripped
10 | (8/8) Accurately ripped
11 | (8/8) Accurately ripped
==== Log checksum 59B502FEF4BE4959643A3D4F29F391A2A407B487B571198AE4C90E1A45F676E3 ====
-
REM GENRE Extreme Gothic Metal
REM DATE 2016
REM DISCID 970E550B
REM COMMENT 18 Nov 2016 Europe
CATALOG 0727361385101
PERFORMER "Devilment"
TITLE "II - The Mephisto Waltzes"
FILE "Devilment - 2016 - II - The Mephisto Waltzes.flac" WAVE
TRACK 01 AUDIO
TITLE "JudasStein"
ISRC DED831601175
INDEX 01 00:00:00
TRACK 02 AUDIO
TITLE "Hitchcock Blonde"
ISRC DED831601176
INDEX 01 05:21:49
TRACK 03 AUDIO
TITLE "Under The Thunder"
ISRC DED831601177
INDEX 01 09:30:49
TRACK 04 AUDIO
TITLE "Full Dark, No Stars"
ISRC DED831601178
INDEX 01 14:50:32
TRACK 05 AUDIO
TITLE "Shine On Sophie Moone"
ISRC DED831601179
INDEX 01 21:13:59
TRACK 06 AUDIO
TITLE "Life Is What You Keep From The Reaper"
ISRC DED831601180
INDEX 01 27:48:25
TRACK 07 AUDIO
TITLE "Dea Della Morte"
ISRC DED831601181
INDEX 01 32:50:51
TRACK 08 AUDIO
TITLE "Entangled In Our Pride"
ISRC DED831601182
INDEX 01 38:27:04
TRACK 09 AUDIO
TITLE "Hell At My Back"
ISRC DED831601182
INDEX 01 44:00:04
TRACK 10 AUDIO
TITLE "The Seductive Poison"
ISRC DED831601183
INDEX 01 49:44:04
TRACK 11 AUDIO
TITLE "Father Dali"
ISRC DED831601185
INDEX 01 55:08:70
-
-
--Работаю не за Спасибо , а за ИДЕЮ.--
Download / Скачать

Хотите скачать бесплатно? Зарегистрируйтесь на сайте (ссылка на регистрацию). Pirat.ca - самый быстрый торрент трекер в рунете!

Как скачивать  ·   Что такое торрент  ·   Рейтинг и ограничения

Показать сообщения:    
Ответить на тему

Текущее время: Сегодня 02:49

Часовой пояс: GMT + 4



Вы не можете начинать темы
Вы не можете отвечать на сообщения
Вы не можете редактировать свои сообщения
Вы не можете удалять свои сообщения
Вы не можете голосовать в опросах
Вы не можете прикреплять файлы к сообщениям
Вы не можете скачивать файлы

▼ Вниз