Уважаемый Гость!
Вы можете поддержать проект и зарегистрироваться у наших партнеров - онлайн-стратегия MyLands. При регистрации в игре Вы получите код, который сможете активировать после регистрации на pirat.ca и получить 1000 дублонов.

Ваш код:
bf76b4fde44c7189cfb4d32d5b204facc1d6d492
 
     

(Heavy Metal) Ozzy Osbourne - Prince Of Darkness (4CD Box Set) - 2013 [FLAC, image +.cue, lossless]

Ответить на тему
 
Автор
Сообщение

Пост 04-Дек-2016 19:04

[Q] 

sergej644

-Ozzy Osbourne - Prince Of Darkness (4CD Box Set)--
Год издания: 2013
Страна: UK
Жанр: Heavy Metal
Продолжительность: 04:08:56-Лейбл издания: EPIC / Sony Music Entertainment
Страна-выпуска диска: EU
Номер по каталогу: 88725486642-Формат: FLAC
Битрейт аудио: Lossless
Тип рипа: image +.cue
Наличие сканов в содержимом раздачи: да
-
-О́ззи О́сборн — британский рок-певец, музыкант, один из основателей и участник группы Black Sabbath, оказавшей значительное влияние на появление таких музыкальных стилей, как хард-рок и хэви-метал.

01. I Don't Know (Live) (5:03)
02. Mr. Crowley (4:56)
03. Crazy Train (4:50)
04. Goodbye To Romance (Live) (5:24)
05. Suicide Solution (Live) (7:58)
06. Over The Mountain (4:33)
07. Flying High Again (Live) (4:27)
08. You Can't Kill Rock And Roll (6:43)
09. Diary Of A Madman (6:14)
10. Bark At The Moon (Live) (4:24)
11. Spiders (4:29)
12. Rock 'n' Roll Rebel (5:23)
13. You're No Different (5:50)

01. Ultimate Sin (Live) (4:34)
02. Never Know Why (Live) (4:35)
03. Thank God For The Bomb (Live) (4:00)
04. Crazy Babies (4:15)
05. Breakin' All The Rules (5:13)
06. I Don't Want To Change The World (Demo) (3:57)
07. Mama, I'm Coming Home (Demo) (4:09)
08. Desire (Demo) (5:01)
09. No More Tears (7:24)
10. Won't Be Coming Home (S.I.N.) (Demo) (5:00)
11. Perry Mason (Live) (5:56)
12. See You On The Other Side (Demo) (6:34)
13. Walk On Water (Demo) (4:42)
14. Gets Me Through (Live) (4:28)
15. Bang Bang (You're Dead) (4:33)
16. Dreamer (4:45)

01. Iron Man (5:26)
02. N.I.B. (5:58)
03. Purple Haze (4:22)
04. Pictures Of Matchstick Men (6:02)
05. Shake Your Head (Let's Go To Bed) (3:56)
06. Born To Be Wild (3:30)
07. Nowhere To Run (Vapor Trail) (4:45)
08. Psycho Man (5:18)
09. For Heaven's Sake 2000 (4:58)
10. I Ain't No Nice Guy (4:16)
11. Therapy (3:26)
12. Stayin' Alive (4:39)
13. Dog, The Bounty Hunter (0:53)

01. 21st Century Schizoid Man (3:52)
02. Mississippi Queen (4:10)
03. All The Young Dudes (4:36)
04. In My Life (Radio Edit) (3:30)
05. Fire (4:10)
06. For What It's Worth (3:20)
07. Sympathy For The Devil (7:13)
08. Working Class Hero (3:24)
09. Good Times (3:47)
10. Changes (4:07)
-
Код:
Exact Audio Copy V1.3 from 2. September 2016
EAC extraction logfile from 26. November 2016, 11:46
Ozzy Osbourne / Prince Of Darkness (Disc 1)
Used drive  : ATAPI   iHAS122   C   Adapter: 1  ID: 0
Read mode               : Secure
Utilize accurate stream : Yes
Defeat audio cache      : Yes
Make use of C2 pointers : No
Read offset correction                      : 6
Overread into Lead-In and Lead-Out          : No
Fill up missing offset samples with silence : Yes
Delete leading and trailing silent blocks   : No
Null samples used in CRC calculations       : Yes
Used interface                              : Native Win32 interface for Win NT & 2000
Used output format : Internal WAV Routines
Sample format      : 44.100 Hz; 16 Bit; Stereo
TOC of the extracted CD
     Track |   Start  |  Length  | Start sector | End sector
    ---------------------------------------------------------
        1  |  0:00.00 |  5:02.57 |         0    |    22706
        2  |  5:02.57 |  4:56.00 |     22707    |    44906
        3  |  9:58.57 |  4:49.68 |     44907    |    66649
        4  | 14:48.50 |  5:24.00 |     66650    |    90949
        5  | 20:12.50 |  7:58.12 |     90950    |   126811
        6  | 28:10.62 |  4:32.50 |    126812    |   147261
        7  | 32:43.37 |  4:26.45 |    147262    |   167256
        8  | 37:10.07 |  6:43.23 |    167257    |   197504
        9  | 43:53.30 |  6:13.45 |    197505    |   225524
       10  | 50:07.00 |  4:23.40 |    225525    |   245289
       11  | 54:30.40 |  4:28.40 |    245290    |   265429
       12  | 58:59.05 |  5:22.60 |    265430    |   289639
       13  | 64:21.65 |  5:49.55 |    289640    |   315869
Range status and errors
Selected range
     Filename C:\Users\Artur\Desktop\ТОРРЕНТЫ\Ozzy Osbourne - Prince Of Darkness (Disc 1).wav
     Peak level 100.0 %
     Extraction speed 9.1 X
     Range quality 99.9 %
     Test CRC 0DD7913E
     Copy CRC 0DD7913E
     Copy OK
No errors occurred
End of status report
---- CUETools DB Plugin V2.1.6
[CTDB TOCID: BaE4JWhQozEjsi_VEeyCrAxZkEg-] found
Submit result: BaE4JWhQozEjsi_VEeyCrAxZkEg- has been confirmed
Track | CTDB Status
  1   | (40/74) Accurately ripped
  2   | (40/74) Accurately ripped
  3   | (40/74) Accurately ripped
  4   | (40/74) Accurately ripped
  5   | (40/74) Accurately ripped
  6   | (40/74) Accurately ripped
  7   | (40/74) Accurately ripped
  8   | (40/74) Accurately ripped
  9   | (40/74) Accurately ripped
10   | (40/74) Accurately ripped
11   | (40/74) Accurately ripped
12   | (40/74) Accurately ripped
13   | (40/74) Accurately ripped
Код:
Exact Audio Copy V1.3 from 2. September 2016
EAC extraction logfile from 30. November 2016, 11:09
Ozzy Osbourne / Prince Of Darkness (Disc 2)
Used drive  : ATAPI   iHAS122   C   Adapter: 1  ID: 0
Read mode               : Secure
Utilize accurate stream : Yes
Defeat audio cache      : Yes
Make use of C2 pointers : No
Read offset correction                      : 6
Overread into Lead-In and Lead-Out          : No
Fill up missing offset samples with silence : Yes
Delete leading and trailing silent blocks   : No
Null samples used in CRC calculations       : Yes
Used interface                              : Native Win32 interface for Win NT & 2000
Used output format : Internal WAV Routines
Sample format      : 44.100 Hz; 16 Bit; Stereo
TOC of the extracted CD
     Track |   Start  |  Length  | Start sector | End sector
    ---------------------------------------------------------
        1  |  0:00.00 |  4:34.20 |         0    |    20569
        2  |  4:34.20 |  4:34.67 |     20570    |    41186
        3  |  9:09.12 |  4:00.15 |     41187    |    59201
        4  | 13:09.27 |  4:15.15 |     59202    |    78341
        5  | 17:24.42 |  5:12.65 |     78342    |   101806
        6  | 22:37.32 |  3:56.55 |    101807    |   119561
        7  | 26:34.12 |  4:08.53 |    119562    |   138214
        8  | 30:42.65 |  5:01.32 |    138215    |   160821
        9  | 35:44.22 |  7:23.55 |    160822    |   194101
       10  | 43:08.02 |  4:59.38 |    194102    |   216564
       11  | 48:07.40 |  5:56.12 |    216565    |   243276
       12  | 54:03.52 |  6:34.15 |    243277    |   272841
       13  | 60:37.67 |  4:41.60 |    272842    |   293976
       14  | 65:19.52 |  4:28.05 |    293977    |   314081
       15  | 69:47.57 |  4:33.18 |    314082    |   334574
       16  | 74:21.00 |  4:45.17 |    334575    |   355966
Range status and errors
Selected range
     Filename C:\Users\Artur\Desktop\ТОРРЕНТЫ\Ozzy Osbourne - Prince Of Darkness (Disc 2)\Ozzy Osbourne - Prince Of Darkness (Disc 2).wav
     Peak level 100.0 %
     Extraction speed 9.8 X
     Range quality 100.0 %
     Test CRC D9A5B5FE
     Copy CRC D9A5B5FE
     Copy OK
No errors occurred
End of status report
---- CUETools DB Plugin V2.1.6
[CTDB TOCID: 3wfH7NDOOCRyWV.b0TWoMzJmawo-] found
Submit result: already submitted
Track | CTDB Status
  1   | (69/70) Accurately ripped
  2   | (69/70) Accurately ripped
  3   | (69/70) Accurately ripped
  4   | (69/70) Accurately ripped
  5   | (69/70) Accurately ripped
  6   | (69/70) Accurately ripped
  7   | (69/70) Accurately ripped
  8   | (69/70) Accurately ripped
  9   | (69/70) Accurately ripped
10   | (69/70) Accurately ripped
11   | (67/70) Accurately ripped
12   | (69/70) Accurately ripped
13   | (68/70) Accurately ripped
14   | (69/70) Accurately ripped
15   | (69/70) Accurately ripped
16   | (69/70) Accurately ripped
Код:
Exact Audio Copy V1.3 from 2. September 2016
EAC extraction logfile from 30. November 2016, 10:47
Ozzy Osbourne / Prince Of  Darkness (Disc 3)
Used drive  : ATAPI   iHAS122   C   Adapter: 1  ID: 0
Read mode               : Secure
Utilize accurate stream : Yes
Defeat audio cache      : Yes
Make use of C2 pointers : No
Read offset correction                      : 6
Overread into Lead-In and Lead-Out          : No
Fill up missing offset samples with silence : Yes
Delete leading and trailing silent blocks   : No
Null samples used in CRC calculations       : Yes
Used interface                              : Native Win32 interface for Win NT & 2000
Used output format : Internal WAV Routines
Sample format      : 44.100 Hz; 16 Bit; Stereo
TOC of the extracted CD
     Track |   Start  |  Length  | Start sector | End sector
    ---------------------------------------------------------
        1  |  0:00.00 |  5:26.25 |         0    |    24474
        2  |  5:26.25 |  5:58.15 |     24475    |    51339
        3  | 11:24.40 |  4:22.22 |     51340    |    71011
        4  | 15:46.62 |  6:02.33 |     71012    |    98194
        5  | 21:49.20 |  3:55.62 |     98195    |   115881
        6  | 25:45.07 |  3:29.45 |    115882    |   131601
        7  | 29:14.52 |  4:44.65 |    131602    |   152966
        8  | 33:59.42 |  5:18.30 |    152967    |   176846
        9  | 39:17.72 |  4:57.70 |    176847    |   199191
       10  | 44:15.67 |  4:15.73 |    199192    |   218389
       11  | 48:31.65 |  3:25.70 |    218390    |   233834
       12  | 51:57.60 |  4:39.07 |    233835    |   254766
       13  | 56:36.67 |  0:53.10 |    254767    |   258751
Range status and errors
Selected range
     Filename C:\Users\Artur\Desktop\ТОРРЕНТЫ\Ozzy Osbourne - Prince Of  Darkness (Disc 3).wav
     Peak level 100.0 %
     Extraction speed 7.2 X
     Range quality 99.9 %
     Test CRC B0CD27F2
     Copy CRC B0CD27F2
     Copy OK
No errors occurred
End of status report
---- CUETools DB Plugin V2.1.6
[CTDB TOCID: pT6jbR4PXPAqnyxc1yQ2jlsIZLI-] found
Submit result: pT6jbR4PXPAqnyxc1yQ2jlsIZLI- has been confirmed
Track | CTDB Status
  1   | (67/67) Accurately ripped
  2   | (67/67) Accurately ripped
  3   | (67/67) Accurately ripped
  4   | (67/67) Accurately ripped
  5   | (67/67) Accurately ripped
  6   | (67/67) Accurately ripped
  7   | (67/67) Accurately ripped
  8   | (67/67) Accurately ripped
  9   | (67/67) Accurately ripped
10   | (65/67) Accurately ripped
11   | (66/67) Accurately ripped
12   | (67/67) Accurately ripped
13   | (67/67) Accurately ripped
Код:
Exact Audio Copy V1.3 from 2. September 2016
EAC extraction logfile from 30. November 2016, 11:23
Ozzy Osbourne / Prince Of Darkness (Disc 4)
Used drive  : ATAPI   iHAS122   C   Adapter: 1  ID: 0
Read mode               : Secure
Utilize accurate stream : Yes
Defeat audio cache      : Yes
Make use of C2 pointers : No
Read offset correction                      : 6
Overread into Lead-In and Lead-Out          : No
Fill up missing offset samples with silence : Yes
Delete leading and trailing silent blocks   : No
Null samples used in CRC calculations       : Yes
Used interface                              : Native Win32 interface for Win NT & 2000
Used output format : Internal WAV Routines
Sample format      : 44.100 Hz; 16 Bit; Stereo
TOC of the extracted CD
     Track |   Start  |  Length  | Start sector | End sector
    ---------------------------------------------------------
        1  |  0:00.00 |  3:52.30 |         0    |    17429
        2  |  3:52.30 |  4:09.67 |     17430    |    36171
        3  |  8:02.22 |  4:36.20 |     36172    |    56891
        4  | 12:38.42 |  3:29.53 |     56892    |    72619
        5  | 16:08.20 |  4:09.60 |     72620    |    91354
        6  | 20:18.05 |  3:20.07 |     91355    |   106361
        7  | 23:38.12 |  7:12.53 |    106362    |   138814
        8  | 30:50.65 |  3:24.05 |    138815    |   154119
        9  | 34:14.70 |  3:46.62 |    154120    |   171131
       10  | 38:01.57 |  4:06.55 |    171132    |   189636
Range status and errors
Selected range
     Filename C:\Users\Artur\Desktop\ТОРРЕНТЫ\Ozzy Osbourne - Prince Of Darkness (Disc 4).wav
     Peak level 100.0 %
     Extraction speed 7.8 X
     Range quality 99.9 %
     Test CRC 21EE7857
     Copy CRC 21EE7857
     Copy OK
No errors occurred
End of status report
---- CUETools DB Plugin V2.1.6
[CTDB TOCID: n_gUZFjxam3WRY2XLUVaOBuRlO8-] found
Submit result: n_gUZFjxam3WRY2XLUVaOBuRlO8- has been confirmed
Track | CTDB Status
  1   | (67/68) Accurately ripped
  2   | (67/68) Accurately ripped
  3   | (67/68) Accurately ripped
  4   | (67/68) Accurately ripped
  5   | (67/68) Accurately ripped
  6   | (67/68) Accurately ripped
  7   | (67/68) Accurately ripped
  8   | (67/68) Accurately ripped
  9   | (67/68) Accurately ripped
10   | (67/68) Accurately ripped
Код:
REM DISCID A310730D
REM COMMENT "ExactAudioCopy v1.3"
PERFORMER "Ozzy Osbourne"
TITLE "Prince Of Darkness (Disc 1)"
REM COMPOSER ""
FILE "Ozzy Osbourne - Prince Of Darkness (Disc 1).flac" WAVE
  TRACK 01 AUDIO
    TITLE "I Don't Know [Live]"
    PERFORMER "Ozzy Osbourne"
    REM COMPOSER ""
    ISRC USSM10413508
    INDEX 01 00:00:00
  TRACK 02 AUDIO
    TITLE "Mr. Crowley"
    PERFORMER "Ozzy Osbourne"
    REM COMPOSER ""
    ISRC USSM10204727
    INDEX 00 05:01:12
    INDEX 01 05:02:57
  TRACK 03 AUDIO
    TITLE "Crazy Train"
    PERFORMER "Ozzy Osbourne"
    REM COMPOSER ""
    ISRC USSM10204723
    INDEX 01 09:58:57
  TRACK 04 AUDIO
    TITLE "Goodbye To Romance [Live]"
    PERFORMER "Ozzy Osbourne"
    REM COMPOSER ""
    ISRC USSM18700029
    INDEX 01 14:48:50
  TRACK 05 AUDIO
    TITLE "Suicide Solution [Live]"
    PERFORMER "Ozzy Osbourne"
    REM COMPOSER ""
    ISRC USSM10413509
    INDEX 01 20:12:50
  TRACK 06 AUDIO
    TITLE "Over The Mountain"
    PERFORMER "Ozzy Osbourne"
    REM COMPOSER ""
    ISRC USSM10204759
    INDEX 00 28:09:20
    INDEX 01 28:10:62
  TRACK 07 AUDIO
    TITLE "Flying High Again [Live]"
    PERFORMER "Ozzy Osbourne"
    REM COMPOSER ""
    ISRC USSM10413510
    INDEX 00 32:42:32
    INDEX 01 32:43:37
  TRACK 08 AUDIO
    TITLE "You Can't Kill Rock And Roll"
    PERFORMER "Ozzy Osbourne"
    REM COMPOSER ""
    ISRC USSM10204757
    INDEX 00 37:08:27
    INDEX 01 37:10:07
  TRACK 09 AUDIO
    TITLE "Diary Of A Madman"
    PERFORMER "Ozzy Osbourne"
    REM COMPOSER ""
    ISRC USSM10204752
    INDEX 01 43:53:30
  TRACK 10 AUDIO
    TITLE "Bark At The Moon [Live]"
    PERFORMER "Ozzy Osbourne"
    REM COMPOSER ""
    ISRC USSM10413511
    INDEX 00 50:05:45
    INDEX 01 50:07:00
  TRACK 11 AUDIO
    TITLE "Spiders"
    PERFORMER "Ozzy Osbourne"
    REM COMPOSER ""
    ISRC USSM10413512
    INDEX 00 54:29:22
    INDEX 01 54:30:40
  TRACK 12 AUDIO
    TITLE "Rock 'n' Roll Rebel"
    PERFORMER "Ozzy Osbourne"
    REM COMPOSER ""
    ISRC USSM10413513
    INDEX 01 58:59:05
  TRACK 13 AUDIO
    TITLE "You're No Different"
    PERFORMER "Ozzy Osbourne"
    REM COMPOSER ""
    ISRC USSM10413514
    INDEX 01 64:21:65
Код:
REM DISCID 02128A10
REM COMMENT "ExactAudioCopy v1.3"
PERFORMER "Ozzy Osbourne"
TITLE "Prince Of Darkness (Disc 2)"
REM COMPOSER ""
FILE "Ozzy Osbourne - Prince Of Darkness (Disc 2).flac" WAVE
  TRACK 01 AUDIO
    TITLE "Ultimate Sin [Live]"
    PERFORMER "Ozzy Osbourne"
    REM COMPOSER ""
    ISRC USSM10413518
    INDEX 01 00:00:00
  TRACK 02 AUDIO
    TITLE "Never Know Why [Live]"
    PERFORMER "Ozzy Osbourne"
    REM COMPOSER ""
    ISRC USSM10413516
    INDEX 01 04:34:20
  TRACK 03 AUDIO
    TITLE "Thank God For The Bomb [Live]"
    PERFORMER "Ozzy Osbourne"
    REM COMPOSER ""
    ISRC USSM10413517
    INDEX 01 09:09:12
  TRACK 04 AUDIO
    TITLE "Crazy Babies"
    PERFORMER "Ozzy Osbourne"
    REM COMPOSER ""
    ISRC USSM18800004
    INDEX 00 13:08:25
    INDEX 01 13:09:27
  TRACK 05 AUDIO
    TITLE "Breakin' All The Rules"
    PERFORMER "Ozzy Osbourne"
    REM COMPOSER ""
    ISRC USSM10010774
    INDEX 01 17:24:42
  TRACK 06 AUDIO
    TITLE "I Don't Want To Change The World [Demo]"
    PERFORMER "Ozzy Osbourne"
    REM COMPOSER ""
    ISRC USSM10413681
    INDEX 01 22:37:32
  TRACK 07 AUDIO
    TITLE "Mama, I'm Coming Home [Demo]"
    PERFORMER "Ozzy Osbourne"
    REM COMPOSER ""
    ISRC USSM10413519
    INDEX 00 26:32:70
    INDEX 01 26:34:12
  TRACK 08 AUDIO
    TITLE "Desire [Demo]"
    PERFORMER "Ozzy Osbourne"
    REM COMPOSER ""
    ISRC USSM10413520
    INDEX 01 30:42:65
  TRACK 09 AUDIO
    TITLE "No More Tears"
    PERFORMER "Ozzy Osbourne"
    REM COMPOSER ""
    ISRC USSM19100025
    INDEX 00 35:43:05
    INDEX 01 35:44:22
  TRACK 10 AUDIO
    TITLE "Won't Be Coming Home (S.I.N.) [Demo]"
    PERFORMER "Ozzy Osbourne"
    REM COMPOSER ""
    ISRC USSM10413521
    INDEX 01 43:08:02
  TRACK 11 AUDIO
    TITLE "Perry Mason [Live]"
    PERFORMER "Ozzy Osbourne"
    REM COMPOSER ""
    ISRC USSM10500780
    INDEX 01 48:07:40
  TRACK 12 AUDIO
    TITLE "See You On The Other Side [Demo]"
    PERFORMER "Ozzy Osbourne"
    REM COMPOSER ""
    ISRC USSM10413522
    INDEX 00 54:01:47
    INDEX 01 54:03:52
  TRACK 13 AUDIO
    TITLE "Walk On Water [Demo]"
    PERFORMER "Ozzy Osbourne"
    REM COMPOSER ""
    ISRC USSM10413523
    INDEX 01 60:37:67
  TRACK 14 AUDIO
    TITLE "Gets Me Through [Live]"
    PERFORMER "Ozzy Osbourne"
    REM COMPOSER ""
    ISRC USSM10413524
    INDEX 01 65:19:52
  TRACK 15 AUDIO
    TITLE "Bang Bang (You're Dead)"
    PERFORMER "Ozzy Osbourne"
    REM COMPOSER ""
    ISRC USSM10413525
    INDEX 00 69:46:02
    INDEX 01 69:47:57
  TRACK 16 AUDIO
    TITLE "Dreamer"
    PERFORMER "Ozzy Osbourne"
    REM COMPOSER ""
    ISRC USSM10110213
    INDEX 01 74:21:00
Код:
REM DISCID C40D7A0D
REM COMMENT "ExactAudioCopy v1.3"
PERFORMER "Ozzy Osbourne"
TITLE "Prince Of  Darkness (Disc 3)"
REM COMPOSER ""
FILE "Ozzy Osbourne - Prince Of  Darkness (Disc 3).flac" WAVE
  TRACK 01 AUDIO
    TITLE "Iron Man"
    PERFORMER "Ozzy Osbourne"
    REM COMPOSER ""
    ISRC USSM10028712
    INDEX 01 00:00:00
  TRACK 02 AUDIO
    TITLE "N.I.B."
    PERFORMER "Ozzy Osbourne"
    REM COMPOSER ""
    ISRC USLIC0500008
    INDEX 01 05:26:25
  TRACK 03 AUDIO
    TITLE "Purple Haze"
    PERFORMER "Ozzy Osbourne"
    REM COMPOSER ""
    ISRC USLIC0500009
    INDEX 00 11:23:35
    INDEX 01 11:24:40
  TRACK 04 AUDIO
    TITLE "Pictures Of Matchstick Men"
    PERFORMER "Ozzy Osbourne"
    REM COMPOSER ""
    ISRC USLIC0500010
    INDEX 00 15:45:30
    INDEX 01 15:46:62
  TRACK 05 AUDIO
    TITLE "Shake Your Head (Let's Go To Bed)"
    PERFORMER "Ozzy Osbourne"
    REM COMPOSER ""
    ISRC USGF18301604
    INDEX 00 21:47:22
    INDEX 01 21:49:20
  TRACK 06 AUDIO
    TITLE "Born To Be Wild"
    PERFORMER "Ozzy Osbourne"
    REM COMPOSER ""
    ISRC USLIC0500012
    INDEX 01 25:45:07
  TRACK 07 AUDIO
    TITLE "Nowhere To Run (Vapor Trail)"
    PERFORMER "Ozzy Osbourne"
    REM COMPOSER ""
    ISRC USSM10413683
    INDEX 01 29:14:52
  TRACK 08 AUDIO
    TITLE "Psycho Man"
    PERFORMER "Ozzy Osbourne"
    REM COMPOSER ""
    ISRC USSM19802042
    INDEX 00 33:57:62
    INDEX 01 33:59:42
  TRACK 09 AUDIO
    TITLE "For Heaven's Sake 2000"
    PERFORMER "Ozzy Osbourne"
    REM COMPOSER ""
    ISRC USLR50000480
    INDEX 01 39:17:72
  TRACK 10 AUDIO
    TITLE "I Ain't No Nice Guy"
    PERFORMER "Ozzy Osbourne"
    REM COMPOSER ""
    ISRC USSM10412798
    INDEX 00 44:13:15
    INDEX 01 44:15:67
  TRACK 11 AUDIO
    TITLE "Therapy"
    PERFORMER "Ozzy Osbourne"
    REM COMPOSER ""
    ISRC USSM10412799
    INDEX 01 48:31:65
  TRACK 12 AUDIO
    TITLE "Stayin' Alive"
    PERFORMER "Ozzy Osbourne"
    REM COMPOSER ""
    ISRC USLIC0500013
    INDEX 00 51:56:60
    INDEX 01 51:57:60
  TRACK 13 AUDIO
    TITLE "Dog, The Bounty Hunter"
    PERFORMER "Ozzy Osbourne"
    REM COMPOSER ""
    ISRC USSM10500568
    INDEX 01 56:36:67
Код:
REM DISCID 7009E00A
REM COMMENT "ExactAudioCopy v1.3"
PERFORMER "Ozzy Osbourne"
TITLE "Prince Of Darkness (Disc 4)"
REM COMPOSER ""
FILE "Ozzy Osbourne - Prince Of Darkness (Disc 4).flac" WAVE
  TRACK 01 AUDIO
    TITLE "21st Century Schizoid Man"
    PERFORMER "Ozzy Osbourne"
    REM COMPOSER ""
    ISRC USSM10413527
    INDEX 01 00:00:00
  TRACK 02 AUDIO
    TITLE "Mississippi Queen"
    PERFORMER "Ozzy Osbourne"
    REM COMPOSER ""
    ISRC USSM10413529
    INDEX 01 03:52:30
  TRACK 03 AUDIO
    TITLE "All The Young Dudes"
    PERFORMER "Ozzy Osbourne"
    REM COMPOSER ""
    ISRC USSM10413533
    INDEX 01 08:02:22
  TRACK 04 AUDIO
    TITLE "In My Life [Radio Edit]"
    PERFORMER "Ozzy Osbourne"
    REM COMPOSER ""
    ISRC USSM10413528
    INDEX 00 12:36:55
    INDEX 01 12:38:42
  TRACK 05 AUDIO
    TITLE "Fire"
    PERFORMER "Ozzy Osbourne"
    REM COMPOSER ""
    ISRC USSM10413531
    INDEX 01 16:08:20
  TRACK 06 AUDIO
    TITLE "For What It's Worth"
    PERFORMER "Ozzy Osbourne"
    REM COMPOSER ""
    ISRC USSM10413530
    INDEX 01 20:18:05
  TRACK 07 AUDIO
    TITLE "Sympathy For The Devil"
    PERFORMER "Ozzy Osbourne"
    REM COMPOSER ""
    ISRC USSM10413534
    INDEX 01 23:38:12
  TRACK 08 AUDIO
    TITLE "Working Class Hero"
    PERFORMER "Ozzy Osbourne"
    REM COMPOSER ""
    ISRC USSM10415115
    INDEX 00 30:49:12
    INDEX 01 30:50:65
  TRACK 09 AUDIO
    TITLE "Good Times"
    PERFORMER "Ozzy Osbourne"
    REM COMPOSER ""
    ISRC USSM10413526
    INDEX 01 34:14:70
  TRACK 10 AUDIO
    TITLE "Changes"
    PERFORMER "Ozzy Osbourne"
    REM COMPOSER ""
    ISRC USLIC0500014
    INDEX 01 38:01:57
--
Download / Скачать

Хотите скачать бесплатно? Зарегистрируйтесь на сайте (ссылка на регистрацию). Pirat.ca - самый быстрый торрент трекер в рунете!

Как скачивать  ·   Что такое торрент  ·   Рейтинг и ограничения

Rei1

Легенда

Пост 28-Апр-2017 18:09 (спустя 4 месяца 23 дня)

[Q] 

Очень плохая музыка Всем качать!!!
[Профиль]  [ЛС] 
Показать сообщения:    
Ответить на тему

Текущее время: Сегодня 12:32

Часовой пояс: GMT + 4



Вы не можете начинать темы
Вы не можете отвечать на сообщения
Вы не можете редактировать свои сообщения
Вы не можете удалять свои сообщения
Вы не можете голосовать в опросах
Вы не можете прикреплять файлы к сообщениям
Вы не можете скачивать файлы

▼ Вниз