Уважаемый Гость!
Вы можете поддержать проект и зарегистрироваться у наших партнеров - онлайн-стратегия MyLands. При регистрации в игре Вы получите код, который сможете активировать после регистрации на pirat.ca и получить 1000 дублонов.

Ваш код:
d49a3625bbdee1b82b14274f97c375f8b2b2ee4c
 
     

(Black Thrash Metal) Gehennah - Too Loud to Live, Too Drunk to Die - 2016 [FLAC, image+.cue, lossless]

Ответить на тему
 
Автор
Сообщение

Пост 06-Дек-2016 02:26

[Q] 

Дядя Вова

Гроза морей

- Gehennah - Too Loud to Live, Too Drunk to Die-- Год издания: 2016
Страна: Forshaga, Sweden
Жанр: Black Thrash Metal
Продолжительность: 00:36:46-Лейбл издания: Fono Ltd.
Тип альбома: Remaster
Страна-выпуска диска: 2016 Russia
Номер по каталогу: [FO1200CD]
Формат: FLAC
Битрейт аудио: lossless
Тип рипа: image+.cue
Наличие сканов в содержимом раздачи: да-
01. Still The Elite
02. Life Metal Must Die
03. Too Loud To Live, Too Drunk To Die
04. Scumbag
05. Gehennah Will Destroy Your Life
06. Let’s Fall Off The Wagon
07. ‘Cause We’re A Street Metal Band
08. Tonight We Fight
09. When All Else Fails – Destroy!
10. Low On Cash, High On Speed
11. We Stole Your Song
12. Unholy & Unpleasant
13. All Of The Decadence, None Of The Success
-
Exact Audio Copy V1.1 from 23. June 2015
EAC extraction logfile from 5. March 2016, 20:38
Gehennah / Too Loud to Live, Too Drunk to Die
Used drive : PIONEER BD-RW BDR-209D Adapter: 0 ID: 5
Read mode : Secure
Utilize accurate stream : Yes
Defeat audio cache : Yes
Make use of C2 pointers : No
Read offset correction : 667
Overread into Lead-In and Lead-Out : No
Fill up missing offset samples with silence : Yes
Delete leading and trailing silent blocks : No
Null samples used in CRC calculations : Yes
Used interface : Installed external ASPI interface
Used output format : User Defined Encoder
Selected bitrate : 768 kBit/s
Quality : High
Add ID3 tag : No
Command line compressor : C:\Program Files (x86)\Exact Audio Copy\FLAC\FLAC.EXE
Additional command line options : -6 -V -T "ARTIST=%artist%" -T "TITLE=%title%" -T "ALBUM=%albumtitle%" -T "DATE=%year%" -T "TRACKNUMBER=%tracknr%" -T "GENRE=%genre%" -T "COMMENT=%comment%" -T "BAND=%albuminterpret%" -T "ALBUMARTIST=%albuminterpret%" -T "COMPOSER=%composer%" %haslyrics%--tag-from-file=LYRICS="%lyricsfile%"%haslyrics% -T "DISCNUMBER=%cdnumber%" -T "TOTALDISCS=%totalcds%" -T "TOTALTRACKS=%numtracks%" %hascover%--picture="%coverfile%"%hascover% %source% -o %dest%
TOC of the extracted CD
Track | Start | Length | Start sector | End sector
---------------------------------------------------------
1 | 0:00.00 | 3:47.66 | 0 | 17090
2 | 3:47.66 | 2:27.41 | 17091 | 28156
3 | 6:15.32 | 2:59.49 | 28157 | 41630
4 | 9:15.06 | 3:44.39 | 41631 | 58469
5 | 12:59.45 | 2:01.36 | 58470 | 67580
6 | 15:01.06 | 2:47.13 | 67581 | 80118
7 | 17:48.19 | 2:34.32 | 80119 | 91700
8 | 20:22.51 | 2:36.73 | 91701 | 103473
9 | 22:59.49 | 2:11.01 | 103474 | 113299
10 | 25:10.50 | 2:37.67 | 113300 | 125141
11 | 27:48.42 | 2:53.05 | 125142 | 138121
12 | 30:41.47 | 2:11.39 | 138122 | 147985
13 | 32:53.11 | 3:53.17 | 147986 | 165477
Range status and errors
Selected range
Filename E:\MUSIC\Gehennah - Too Loud to Live, Too Drunk to Die.wav
Peak level 100.0 %
Extraction speed 7.3 X
Range quality 100.0 %
Test CRC B8E42230
Copy CRC B8E42230
Copy OK
No errors occurred
AccurateRip summary
Track 1 not present in database
Track 2 not present in database
Track 3 not present in database
Track 4 not present in database
Track 5 not present in database
Track 6 not present in database
Track 7 not present in database
Track 8 not present in database
Track 9 not present in database
Track 10 not present in database
Track 11 not present in database
Track 12 not present in database
Track 13 not present in database
None of the tracks are present in the AccurateRip database
End of status report
==== Log checksum 8E35A3EB50B9E7E8C9F548044E49514A2BB30BDDAD8BD70812F09E10F3A6B26F ====
-
REM GENRE Black/Thrash Metal
REM DATE 2016
REM DISCID A8089E0D
REM COMMENT 2016 Russia
PERFORMER "Gehennah"
TITLE "Too Loud to Live, Too Drunk to Die"
FILE "Gehennah - Too Loud to Live, Too Drunk to Die.flac" WAVE
TRACK 01 AUDIO
TITLE "Still the Elite"
INDEX 01 00:00:00
TRACK 02 AUDIO
TITLE "Life Metal Must Die"
INDEX 01 03:47:66
TRACK 03 AUDIO
TITLE "Too Loud to Live, Too Drunk to Die"
INDEX 01 06:15:32
TRACK 04 AUDIO
TITLE "Scumbag"
INDEX 01 09:15:06
TRACK 05 AUDIO
TITLE "Gehennah Will Destroy Your Life"
INDEX 01 12:59:45
TRACK 06 AUDIO
TITLE "Let's Fall off the Wagon"
INDEX 01 15:01:06
TRACK 07 AUDIO
TITLE "Cause We're a Street Metal Band"
INDEX 01 17:48:19
TRACK 08 AUDIO
TITLE "Tonight We Fight"
INDEX 01 20:22:51
TRACK 09 AUDIO
TITLE "When All Else Fails - Destroy!"
INDEX 01 22:59:49
TRACK 10 AUDIO
TITLE "Low on Cash, High on Speed"
INDEX 01 25:10:50
TRACK 11 AUDIO
TITLE "We Stole Your Song"
INDEX 01 27:48:42
TRACK 12 AUDIO
TITLE "Unholy & Unpleasant"
INDEX 01 30:41:47
TRACK 13 AUDIO
TITLE "All of the Decadence, None of the Success"
INDEX 01 32:53:11
-
-
--Работаю не за Спасибо , а за ИДЕЮ.--
Download / Скачать

Хотите скачать бесплатно? Зарегистрируйтесь на сайте (ссылка на регистрацию). Pirat.ca - самый быстрый торрент трекер в рунете!

Как скачивать  ·   Что такое торрент  ·   Рейтинг и ограничения

Показать сообщения:    
Ответить на тему

Текущее время: Сегодня 19:39

Часовой пояс: GMT + 4



Вы не можете начинать темы
Вы не можете отвечать на сообщения
Вы не можете редактировать свои сообщения
Вы не можете удалять свои сообщения
Вы не можете голосовать в опросах
Вы не можете прикреплять файлы к сообщениям
Вы не можете скачивать файлы

▼ Вниз