Уважаемый Гость!
Вы можете поддержать проект и зарегистрироваться у наших партнеров - онлайн-стратегия MyLands. При регистрации в игре Вы получите код, который сможете активировать после регистрации на pirat.ca и получить 1000 дублонов.

Ваш код:
b35b3ec45a7bd3f86315766471edc285be832af4
 
     

(Power Metal) Hansen & Friends - XXX - Three Decades In Metal (Japanese Limited Edition 2CDs) - 2016 [FLAC, image+.cue, lossless]

Ответить на тему
 
Автор
Сообщение

Пост 07-Дек-2016 20:19

[Q] 

Дядя Вова

Гроза морей

-Hansen & Friends - XXX - Three Decades In Metal (Japanese Limited Edition 2CDs)-- Год издания: 2016
Страна: Hamburg, Hamburg, Germany
Жанр: Power Metal
Продолжительность: 01:56:21-Лейбл издания: Ward Records Inc.
Тип альбома: Remaster
Страна-выпуска диска: Germany
Номер по каталогу: GQCS-90225-6
Формат: FLAC
Битрейт аудио: lossless
Тип рипа: image+.cue
Наличие сканов в содержимом раздачи: да-
01. Born Free (04:08)
02. Enemies of Fun (feat. Ralf Scheepers & Piet Sielck) (07:58)
03. Contract Song (feat. Dee Snider & Steve McT) (05:33)
04. Making Headlines Making Headlines (feat. Tobias Sammet) (04:23)
05. Stranger in Time (feat. Michael Kiske, Frank Beck, Tobias Sammet & Roland Grapow) (06:02)
06. Fire and Ice (feat. Clementine Delauney, Marcus Bischoff, Richard Sjunesson & Michael Weikath) (08:29)
07. Left Behind (feat. Alexander Dietz, Clementine Delauney & Marcus Bischoff) (04:26)
08. All or Nothing (feat. Clementine Delauney) (05:13)
09. Burning Bridges (feat. Eike Freese) (03:42)
10. Follow the Sun (feat. Hansi Kursch, Tim Hansen & Marcus Bischoff) (04:34)
11. Born Free (Karaoke Version) (Bonus Track) (04:12)
12. Burning Bridges (Karaoke Version) (Bonus Track) (03:42)
Exact Audio Copy V1.2 from 12. August 2016
EAC extraction logfile from 21. September 2016, 18:49
Hansen & Friends / Three Decades In Metal (Japan)
Used drive : ATAPI iHAS122 W Adapter: 2 ID: 0
Read mode : Secure
Utilize accurate stream : Yes
Defeat audio cache : Yes
Make use of C2 pointers : No
Read offset correction : 48
Overread into Lead-In and Lead-Out : No
Fill up missing offset samples with silence : Yes
Delete leading and trailing silent blocks : No
Null samples used in CRC calculations : Yes
Used interface : Installed external ASPI interface
Used output format : User Defined Encoder
Selected bitrate : 1024 kBit/s
Quality : High
Add ID3 tag : No
Command line compressor : C:\Program Files\FLAC\flac.exe
Additional command line options : -V -8 -T "Date=%year%" -T "Genre=%genre%" -T"COMMENT=Ripped by Ilijan" -8 -V %source%
TOC of the extracted CD
Track | Start | Length | Start sector | End sector
---------------------------------------------------------
1 | 0:00.00 | 4:07.41 | 0 | 18565
2 | 4:07.41 | 7:57.66 | 18566 | 54406
3 | 12:05.32 | 5:33.01 | 54407 | 79382
4 | 17:38.33 | 4:23.16 | 79383 | 99123
5 | 22:01.49 | 6:02.37 | 99124 | 126310
6 | 28:04.11 | 8:28.68 | 126311 | 164478
7 | 36:33.04 | 4:26.28 | 164479 | 184456
8 | 40:59.32 | 5:12.56 | 184457 | 207912
9 | 46:12.13 | 3:42.35 | 207913 | 224597
10 | 49:54.48 | 4:33.62 | 224598 | 245134
11 | 54:28.35 | 4:11.72 | 245135 | 264031
12 | 58:40.32 | 3:41.52 | 264032 | 280658
Range status and errors
Selected range
Filename D:\ilко\Hansen & Friends - Three Decades In Metal (Japan).wav
Peak level 100.0 %
Extraction speed 4.2 X
Range quality 100.0 %
Test CRC F28DB4E2
Copy CRC F28DB4E2
Copy OK
No errors occurred
AccurateRip summary
Track 1 not present in database
Track 2 not present in database
Track 3 not present in database
Track 4 not present in database
Track 5 not present in database
Track 6 not present in database
Track 7 not present in database
Track 8 not present in database
Track 9 not present in database
Track 10 not present in database
Track 11 not present in database
Track 12 not present in database
None of the tracks are present in the AccurateRip database
End of status report
---- CUETools DB Plugin V2.1.6
[CTDB TOCID: iA9heG.oejWbt2Li0inrh3M7ZFM-] found
Submit result: iA9heG.oejWbt2Li0inrh3M7ZFM- has been confirmed
Track | CTDB Status
1 | (1/1) Accurately ripped
2 | (1/1) Accurately ripped
3 | (1/1) Accurately ripped
4 | (1/1) Accurately ripped
5 | (1/1) Accurately ripped
6 | (1/1) Accurately ripped
7 | (1/1) Accurately ripped
8 | (1/1) Accurately ripped
9 | (1/1) Accurately ripped
10 | (1/1) Accurately ripped
11 | (1/1) Accurately ripped
12 | (1/1) Accurately ripped
==== Log checksum 223022C8827345B6682F490CF5A09D2B347166F6D0C9D349AF44DFC1C3AB2D56 ====
REM GENRE "Power Metal"
REM DATE 2016
REM DISCID AA0E9E0C
REM COMMENT "ExactAudioCopy v1.2"
PERFORMER "Hansen & Friends"
TITLE "Three Decades In Metal (Japan)"
REM COMPOSER ""
FILE "Hansen & Friends - Three Decades In Metal (Japan).flac" WAVE
TRACK 01 AUDIO
TITLE "Born Free"
PERFORMER "Hansen & Friends"
REM COMPOSER ""
INDEX 01 00:00:00
TRACK 02 AUDIO
TITLE "Enemies Of Fun (feat. Ralf Scheepers & Piet Sielck)"
PERFORMER "Hansen & Friends"
REM COMPOSER ""
INDEX 00 04:06:68
INDEX 01 04:07:41
TRACK 03 AUDIO
TITLE "Contract Song (feat. Dee Snider & Steve McT)"
PERFORMER "Hansen & Friends"
REM COMPOSER ""
INDEX 00 12:03:68
INDEX 01 12:05:32
TRACK 04 AUDIO
TITLE "Making Headlines (feat. Tobias Sammet)"
PERFORMER "Hansen & Friends"
REM COMPOSER ""
INDEX 00 17:37:63
INDEX 01 17:38:33
TRACK 05 AUDIO
TITLE "Stranger In Time (feat. Michael Kiske, Tobias Sammet & Roland Grapow)"
PERFORMER "Hansen & Friends"
REM COMPOSER ""
INDEX 00 21:59:54
INDEX 01 22:01:49
TRACK 06 AUDIO
TITLE "Fire And Ice (feat. Clementine Delauney, Marcus Bischoff, Richard Sjunesson &..."
PERFORMER "Hansen & Friends"
REM COMPOSER ""
INDEX 00 28:03:10
INDEX 01 28:04:11
TRACK 07 AUDIO
TITLE "Left Behind (feat. Alexander Dietz, Clementine Delauney & Marcus Bischoff)"
PERFORMER "Hansen & Friends"
REM COMPOSER ""
INDEX 00 36:31:29
INDEX 01 36:33:04
TRACK 08 AUDIO
TITLE "All Or Nothing (feat. Clementine Delauney)"
PERFORMER "Hansen & Friends"
REM COMPOSER ""
INDEX 00 40:58:11
INDEX 01 40:59:32
TRACK 09 AUDIO
TITLE "Burning Bridges (feat. Eike Freese)"
PERFORMER "Hansen & Friends"
REM COMPOSER ""
INDEX 00 46:11:38
INDEX 01 46:12:13
TRACK 10 AUDIO
TITLE "Follow The Sun (feat. Hansi Kursch, Tim Hansen & Marcus Bischoff)"
PERFORMER "Hansen & Friends"
REM COMPOSER ""
INDEX 00 49:53:69
INDEX 01 49:54:48
TRACK 11 AUDIO
TITLE "Born Free (Karaoke Version) ( Bonus Track)"
PERFORMER "Hansen & Friends"
REM COMPOSER ""
INDEX 00 54:27:05
INDEX 01 54:28:35
TRACK 12 AUDIO
TITLE "Burning Bridges (Karaoke Version) ( Bonus Track)"
PERFORMER "Hansen & Friends"
REM COMPOSER ""
INDEX 00 58:38:72
INDEX 01 58:40:32
-
01. Born Free (04:11)
02. Enemies of Fun (07:54)
03. Contract Song (05:36)
04. Making Headlines (04:29)
05. Stranger in Time (06:04)
06. Fire and Ice (07:52)
07. Left Behind (04:31)
08. All or Nothing (05:13)
09. Burning Bridges (03:47)
10. Follow the Sun (04:23)
Exact Audio Copy V1.2 from 12. August 2016
EAC extraction logfile from 21. September 2016, 19:20
Hansen & Friends / Three Decades In Metal (Only Kai On Vocals)
Used drive : ATAPI iHAS122 W Adapter: 2 ID: 0
Read mode : Secure
Utilize accurate stream : Yes
Defeat audio cache : Yes
Make use of C2 pointers : No
Read offset correction : 48
Overread into Lead-In and Lead-Out : No
Fill up missing offset samples with silence : Yes
Delete leading and trailing silent blocks : No
Null samples used in CRC calculations : Yes
Used interface : Installed external ASPI interface
Used output format : User Defined Encoder
Selected bitrate : 1024 kBit/s
Quality : High
Add ID3 tag : No
Command line compressor : C:\Program Files\FLAC\flac.exe
Additional command line options : -V -8 -T "Date=%year%" -T "Genre=%genre%" -T"COMMENT=Ripped by Ilijan" -8 -V %source%
TOC of the extracted CD
Track | Start | Length | Start sector | End sector
---------------------------------------------------------
1 | 0:00.00 | 4:10.70 | 0 | 18819
2 | 4:10.70 | 7:53.42 | 18820 | 54336
3 | 12:04.37 | 5:35.70 | 54337 | 79531
4 | 17:40.32 | 4:28.74 | 79532 | 99705
5 | 22:09.31 | 6:03.46 | 99706 | 126976
6 | 28:13.02 | 7:51.46 | 126977 | 162347
7 | 36:04.48 | 4:31.20 | 162348 | 182692
8 | 40:35.68 | 5:12.67 | 182693 | 206159
9 | 45:48.60 | 3:47.11 | 206160 | 223195
10 | 49:35.71 | 4:23.37 | 223196 | 242957
Range status and errors
Selected range
Filename D:\ilко\Hansen & Friends - Three Decades In Metal (Only Kai On Vocals).wav
Peak level 100.0 %
Extraction speed 4.0 X
Range quality 100.0 %
Test CRC 930A924C
Copy CRC 930A924C
Copy OK
No errors occurred
AccurateRip summary
Track 1 not present in database
Track 2 not present in database
Track 3 not present in database
Track 4 not present in database
Track 5 not present in database
Track 6 not present in database
Track 7 not present in database
Track 8 not present in database
Track 9 not present in database
Track 10 not present in database
None of the tracks are present in the AccurateRip database
End of status report
---- CUETools DB Plugin V2.1.6
[CTDB TOCID: 5hM8OttyYdj.4D1sScUFN7RchlI-] found
Submit result: 5hM8OttyYdj.4D1sScUFN7RchlI- has been confirmed
Track | CTDB Status
1 | (3/3) Accurately ripped
2 | (3/3) Accurately ripped
3 | (3/3) Accurately ripped
4 | (3/3) Accurately ripped
5 | (3/3) Accurately ripped
6 | (3/3) Accurately ripped
7 | (3/3) Accurately ripped
8 | (3/3) Accurately ripped
9 | (3/3) Accurately ripped
10 | (3/3) Accurately ripped
==== Log checksum 4F64EFCB4ECCD4654BE3E322B4393FEAD2F590A884EED5537DE9B8BA03587AF6 ====
REM GENRE "Power Metal"
REM DATE 2016
REM DISCID 860CA70A
REM COMMENT "ExactAudioCopy v1.2"
PERFORMER "Hansen & Friends"
TITLE "Three Decades In Metal (Only Kai On Vocals)"
REM COMPOSER ""
FILE "Hansen & Friends - Three Decades In Metal (Only Kai On Vocals).flac" WAVE
TRACK 01 AUDIO
TITLE "Born Free"
PERFORMER "Hansen & Friends"
REM COMPOSER ""
INDEX 01 00:00:00
TRACK 02 AUDIO
TITLE "Enemies Of Fun"
PERFORMER "Hansen & Friends"
REM COMPOSER ""
INDEX 00 04:09:36
INDEX 01 04:10:70
TRACK 03 AUDIO
TITLE "Contract Song"
PERFORMER "Hansen & Friends"
REM COMPOSER ""
INDEX 00 12:02:52
INDEX 01 12:04:37
TRACK 04 AUDIO
TITLE "Making Headlines"
PERFORMER "Hansen & Friends"
REM COMPOSER ""
INDEX 00 17:38:53
INDEX 01 17:40:32
TRACK 05 AUDIO
TITLE "Stranger In Time"
PERFORMER "Hansen & Friends"
REM COMPOSER ""
INDEX 00 22:08:25
INDEX 01 22:09:31
TRACK 06 AUDIO
TITLE "Fire And Ice"
PERFORMER "Hansen & Friends"
REM COMPOSER ""
INDEX 00 28:11:23
INDEX 01 28:13:02
TRACK 07 AUDIO
TITLE "Left Behind"
PERFORMER "Hansen & Friends"
REM COMPOSER ""
INDEX 00 36:02:73
INDEX 01 36:04:48
TRACK 08 AUDIO
TITLE "All Or Nothing"
PERFORMER "Hansen & Friends"
REM COMPOSER ""
INDEX 00 40:34:47
INDEX 01 40:35:68
TRACK 09 AUDIO
TITLE "Burning Bridges"
PERFORMER "Hansen & Friends"
REM COMPOSER ""
INDEX 00 45:46:71
INDEX 01 45:48:60
TRACK 10 AUDIO
TITLE "Follow The Sun"
PERFORMER "Hansen & Friends"
REM COMPOSER ""
INDEX 00 49:34:32
INDEX 01 49:35:71
-
-
--Работаю не за Спасибо , а за ИДЕЮ.--
Download / Скачать

Хотите скачать бесплатно? Зарегистрируйтесь на сайте (ссылка на регистрацию). Pirat.ca - самый быстрый торрент трекер в рунете!

Как скачивать  ·   Что такое торрент  ·   Рейтинг и ограничения

Показать сообщения:    
Ответить на тему

Текущее время: Сегодня 19:00

Часовой пояс: GMT + 4



Вы не можете начинать темы
Вы не можете отвечать на сообщения
Вы не можете редактировать свои сообщения
Вы не можете удалять свои сообщения
Вы не можете голосовать в опросах
Вы не можете прикреплять файлы к сообщениям
Вы не можете скачивать файлы

▼ Вниз