Уважаемый Гость!
Вы можете поддержать проект и зарегистрироваться у наших партнеров - онлайн-стратегия MyLands. При регистрации в игре Вы получите код, который сможете активировать после регистрации на pirat.ca и получить 1000 дублонов.

Ваш код:
bf76b4fde44c7189cfb4d32d5b204facc1d6d492
 
     

(Heavy Metal) W.A.S.P. (WASP) - Golgotha (Limited Digipak) - 2015 [FLAC, image +.cue, lossless]

Ответить на тему
 
Автор
Сообщение

Пост 08-Дек-2016 19:20

[Q] 

sergej644

-W.A.S.P. (WASP) - Golgotha (Limited Digipak)--
Год издания: 2015
Страна: USA
Жанр: Heavy Metal
Продолжительность: 00:54:17-Лейбл издания: Napalm Records
Страна-выпуска диска: Germany
Номер по каталогу: NPR 600 DP-Формат: FLAC
Битрейт аудио: Lossless
Тип рипа: image +.cue
Наличие сканов в содержимом раздачи: да
-

01.Scream(4:56)
02.Last Runaway(5:20)
03.Shotgun(6:08)
04.Miss You(7:41)
05.Fallen Under(4:57)
06.Slaves Of The New World Order(7:45)
07.Eyes Of My Maker(5:01)
08.Hero Of The World(4:52)
09.Golgotha(7:37)
-
Код:
Exact Audio Copy V1.1 from 23. June 2015
EAC extraction logfile from 1. October 2015, 17:36
W.A.S.P. / Golgotha
Used drive  : ATAPI   iHAS122   W   Adapter: 2  ID: 0
Read mode               : Secure
Utilize accurate stream : Yes
Defeat audio cache      : Yes
Make use of C2 pointers : No
Read offset correction                      : 48
Overread into Lead-In and Lead-Out          : No
Fill up missing offset samples with silence : Yes
Delete leading and trailing silent blocks   : No
Null samples used in CRC calculations       : Yes
Used interface                              : Installed external ASPI interface
Used output format              : User Defined Encoder
Selected bitrate                : 1024 kBit/s
Quality                         : High
Add ID3 tag                     : No
Command line compressor         : C:\Program Files\FLAC\flac.exe
Additional command line options : -V -8 -T "Date=%year%" -T "Genre=%genre%" -T"COMMENT=Ripped by  Ilijan" -8 -V %source%
TOC of the extracted CD
     Track |   Start  |  Length  | Start sector | End sector
    ---------------------------------------------------------
        1  |  0:00.00 |  4:55.42 |         0    |    22166
        2  |  4:55.42 |  5:20.13 |     22167    |    46179
        3  | 10:15.55 |  6:07.60 |     46180    |    73764
        4  | 16:23.40 |  7:41.33 |     73765    |   108372
        5  | 24:04.73 |  4:56.70 |    108373    |   130642
        6  | 29:01.68 |  7:44.58 |    130643    |   165500
        7  | 36:46.51 |  5:00.65 |    165501    |   188065
        8  | 41:47.41 |  4:51.72 |    188066    |   209962
        9  | 46:39.38 |  7:37.15 |    209963    |   244252
Range status and errors
Selected range
     Filename D:\ИЛИЯН\W.A.S.P. - Golgotha.wav
     Peak level 100.0 %
     Extraction speed 3.9 X
     Range quality 100.0 %
     Test CRC AC30A05E
     Copy CRC AC30A05E
     Copy OK
No errors occurred
AccurateRip summary
Track  1  not present in database
Track  2  not present in database
Track  3  not present in database
Track  4  not present in database
Track  5  not present in database
Track  6  not present in database
Track  7  not present in database
Track  8  not present in database
Track  9  not present in database
None of the tracks are present in the AccurateRip database
End of status report
---- CUETools DB Plugin V2.1.6
Код:
REM GENRE "Heavy Metal"
REM DATE 2015
REM DISCID 7D0CB809
REM COMMENT "ExactAudioCopy v1.1"
PERFORMER "W.A.S.P."
TITLE "Golgotha"
FILE "W.A.S.P. - Golgotha.flac" WAVE
  TRACK 01 AUDIO
    TITLE "Scream"
    PERFORMER "W.A.S.P."
    INDEX 01 00:00:00
  TRACK 02 AUDIO
    TITLE "Last Runaway"
    PERFORMER "W.A.S.P."
    INDEX 01 04:55:42
  TRACK 03 AUDIO
    TITLE "Shotgun"
    PERFORMER "W.A.S.P."
    INDEX 01 10:15:55
  TRACK 04 AUDIO
    TITLE "Miss You"
    PERFORMER "W.A.S.P."
    INDEX 01 16:23:40
  TRACK 05 AUDIO
    TITLE "Fallen Under"
    PERFORMER "W.A.S.P."
    INDEX 01 24:04:73
  TRACK 06 AUDIO
    TITLE "Slaves Of The New World Order"
    PERFORMER "W.A.S.P."
    INDEX 01 29:01:68
  TRACK 07 AUDIO
    TITLE "Eyes Of My Maker"
    PERFORMER "W.A.S.P."
    INDEX 01 36:46:51
  TRACK 08 AUDIO
    TITLE "Hero Of The World"
    PERFORMER "W.A.S.P."
    INDEX 01 41:47:41
  TRACK 09 AUDIO
    TITLE "Golgotha"
    PERFORMER "W.A.S.P."
    INDEX 01 46:39:38
--
Download / Скачать

Хотите скачать бесплатно? Зарегистрируйтесь на сайте (ссылка на регистрацию). Pirat.ca - самый быстрый торрент трекер в рунете!

Как скачивать  ·   Что такое торрент  ·   Рейтинг и ограничения

Показать сообщения:    
Ответить на тему

Текущее время: Сегодня 12:38

Часовой пояс: GMT + 4



Вы не можете начинать темы
Вы не можете отвечать на сообщения
Вы не можете редактировать свои сообщения
Вы не можете удалять свои сообщения
Вы не можете голосовать в опросах
Вы не можете прикреплять файлы к сообщениям
Вы не можете скачивать файлы

▼ Вниз