Уважаемый Гость!
Вы можете поддержать проект и зарегистрироваться у наших партнеров - онлайн-стратегия MyLands. При регистрации в игре Вы получите код, который сможете активировать после регистрации на pirat.ca и получить 1000 дублонов.

Ваш код:
bf76b4fde44c7189cfb4d32d5b204facc1d6d492
 
     

(Heavy Metal) Cans - Beyond The Gates (Japanese Edition) - 2004 [FLAC, image+.cue, lossless]

Ответить на тему
 
Автор
Сообщение

Пост 12-Дек-2016 01:35

[Q] 

Дядя Вова

Гроза морей

-Cans - Beyond The Gates (Japanese Edition)-- Год издания: 2004
Страна: Sweden (Gothenburg)
Жанр: Heavy Metal
Продолжительность: 00:56:08-Лейбл издания: King Records
Тип альбома: Master
Страна-выпуска диска: 25 Aug 2004 Japan
Номер по каталогу: [KICP-1019]
Формат: FLAC
Битрейт аудио: lossless
Тип рипа: image+.cue
Наличие сканов в содержимом раздачи: да-
01. Fields Of Yesterday
02. Soul Collector
03. Red Light
04. Back To Hell
05. Beyond The Gates
06. The Key
07. Garden Of Evil
08. Merciless
09. Silent Cries
10. Dreams
11. Signs
12. Forever Ends
13. Red Light (karaoke version) *
*bonus track for Japan
-
Exact Audio Copy V1.1 from 23. June 2015
EAC extraction logfile from 26. March 2016, 1:46
Cans / Beyond The Gates
Used drive : ASUS DRW-24F1ST a Adapter: 1 ID: 0
Read mode : Secure
Utilize accurate stream : Yes
Defeat audio cache : Yes
Make use of C2 pointers : No
Read offset correction : 6
Overread into Lead-In and Lead-Out : No
Fill up missing offset samples with silence : Yes
Delete leading and trailing silent blocks : No
Null samples used in CRC calculations : Yes
Used interface : Native Win32 interface for Win NT & 2000
Used output format : User Defined Encoder
Selected bitrate : 768 kBit/s
Quality : High
Add ID3 tag : No
Command line compressor : C:\Program Files (x86)\FLAC Frontend\tools\flac.exe
Additional command line options : -V -8 -T "Date=%year%" -T "Genre=%genre%" %source%
TOC of the extracted CD
Track | Start | Length | Start sector | End sector
---------------------------------------------------------
1 | 0:00.00 | 4:46.32 | 0 | 21481
2 | 4:46.32 | 3:38.20 | 21482 | 37851
3 | 8:24.52 | 4:35.65 | 37852 | 58541
4 | 13:00.42 | 3:20.50 | 58542 | 73591
5 | 16:21.17 | 5:20.60 | 73592 | 97651
6 | 21:42.02 | 4:47.05 | 97652 | 119181
7 | 26:29.07 | 4:27.33 | 119182 | 139239
8 | 30:56.40 | 3:17.00 | 139240 | 154014
9 | 34:13.40 | 4:09.05 | 154015 | 172694
10 | 38:22.45 | 4:16.70 | 172695 | 191964
11 | 42:39.40 | 4:21.55 | 191965 | 211594
12 | 47:01.20 | 4:29.25 | 211595 | 231794
13 | 51:30.45 | 4:37.18 | 231795 | 252587
14 | 58:39.63 | 9:58.35 | 263988 | 308872
Range status and errors
Selected range
Filename G:\EAC - Hellixxx rip\Cans - 2004 - Beyond The Gates (KICP-1019).wav
Peak level 98.7 %
Extraction speed 3.1 X
Range quality 100.0 %
Test CRC 1ADFFF1B
Copy CRC 1ADFFF1B
Copy OK
No errors occurred
AccurateRip summary
Track 1 not present in database
Track 2 not present in database
Track 3 not present in database
Track 4 not present in database
Track 5 not present in database
Track 6 not present in database
Track 7 not present in database
Track 8 not present in database
Track 9 not present in database
Track 10 not present in database
Track 11 not present in database
Track 12 not present in database
Track 13 not present in database
None of the tracks are present in the AccurateRip database
End of status report
==== Log checksum 2DCB26916862EBA32F1517402181168F074D63315474CB037C80559B163FA03E ====
-
REM GENRE Heavy Metal
REM DATE 2004
REM DISCID BD10160E
REM COMMENT 25 Aug 2004 Japan
PERFORMER "Cans"
TITLE "Beyond The Gates"
FILE "Cans - Beyond the Gates.flac" WAVE
TRACK 01 AUDIO
TITLE "Fields Of Yesterday"
INDEX 01 00:00:00
TRACK 02 AUDIO
TITLE "Soul Collector"
INDEX 01 04:46:32
TRACK 03 AUDIO
TITLE "Red Light"
INDEX 01 08:24:52
TRACK 04 AUDIO
TITLE "Back To Hell"
INDEX 01 13:00:42
TRACK 05 AUDIO
TITLE "Beyond The Gates"
INDEX 00 16:19:17
INDEX 01 16:21:17
TRACK 06 AUDIO
TITLE "The Key"
INDEX 00 21:41:02
INDEX 01 21:42:02
TRACK 07 AUDIO
TITLE "Garden Of Evil"
INDEX 00 26:27:57
INDEX 01 26:29:07
TRACK 08 AUDIO
TITLE "Merciless"
INDEX 00 30:54:35
INDEX 01 30:56:40
TRACK 09 AUDIO
TITLE "Silent Cries"
INDEX 00 34:11:35
INDEX 01 34:13:40
TRACK 10 AUDIO
TITLE "Dreams"
INDEX 00 38:21:50
INDEX 01 38:22:45
TRACK 11 AUDIO
TITLE "Signs"
INDEX 00 42:38:50
INDEX 01 42:39:40
TRACK 12 AUDIO
TITLE "Forever Ends"
INDEX 00 46:59:00
INDEX 01 47:01:20
TRACK 13 AUDIO
TITLE "Red Light (Karaoke Version)"
INDEX 00 51:26:20
INDEX 01 51:30:45
-
-
--Работаю не за Спасибо , а за ИДЕЮ.--
Download / Скачать

Хотите скачать бесплатно? Зарегистрируйтесь на сайте (ссылка на регистрацию). Pirat.ca - самый быстрый торрент трекер в рунете!

Как скачивать  ·   Что такое торрент  ·   Рейтинг и ограничения

Пост 12-Дек-2016 10:50 (спустя 9 часов)

Топик был перенесен из форума Rock (Трюм) в форум Metal
sergej644
 
Показать сообщения:    
Ответить на тему

Текущее время: Сегодня 12:30

Часовой пояс: GMT + 4



Вы не можете начинать темы
Вы не можете отвечать на сообщения
Вы не можете редактировать свои сообщения
Вы не можете удалять свои сообщения
Вы не можете голосовать в опросах
Вы не можете прикреплять файлы к сообщениям
Вы не можете скачивать файлы

▼ Вниз